<?xml version="1.0" standalone="no"?>
<!DOCTYPE svg PUBLIC "-//W3C//DTD SVG 1.1//EN" "http://www.w3.org/Graphics/SVG/1.1/DTD/svg11.dtd" >
<svg>
<metadata>
Created by FontForge 20090622 at Thu Nov  9 14:44:11 2017
 By deploy user
Typeface and data copyright 1996 Microsoft Corporation. All Rights Reserved.
</metadata>
<defs>
<font id="Georgia" horiz-adv-x="500" >
  <font-face 
    font-family="Georgia"
    font-weight="400"
    font-stretch="normal"
    units-per-em="1000"
    panose-1="2 4 5 2 5 4 5 2 3 3"
    ascent="800"
    descent="-200"
    x-height="481"
    cap-height="693"
    bbox="-173 -217 1167 912"
    underline-thickness="49"
    underline-position="-65"
    unicode-range="U+0020-U+F010"
  />
<missing-glyph horiz-adv-x="1000" 
d="M125 0h750v750h-750v-750zM187 62v625h625v-625h-625z" />
    <glyph glyph-name=".notdef" horiz-adv-x="1000" 
d="M125 0h750v750h-750v-750zM187 62v625h625v-625h-625z" />
    <glyph glyph-name=".null" horiz-adv-x="0" 
 />
    <glyph glyph-name="nonmarkingreturn" horiz-adv-x="241" 
 />
    <glyph glyph-name="space" unicode=" " horiz-adv-x="241" 
 />
    <glyph glyph-name="space" unicode="&#xa0;" horiz-adv-x="241" 
 />
    <glyph glyph-name="exclam" unicode="!" horiz-adv-x="331" 
d="M230 645q0 28 -17.5 47t-44.5 19t-45 -19t-18 -47q0 -29 16 -164q17 -139 27 -270h38q14 149 28 270q16 135 16 164zM235 56q0 27 -20 47t-47 20t-47 -20t-20 -47t20 -46.5t47 -19.5t47 19.5t20 46.5z" />
    <glyph glyph-name="quotedbl" unicode="&#x22;" horiz-adv-x="412" 
d="M354 692q0 23 -14.5 39t-40.5 16t-40.5 -16t-14.5 -39q0 -19 13 -83q16 -74 26 -137h30q8 48 19 100.5l16.5 80t5.5 39.5zM167 692q0 23 -14.5 39t-39.5 16q-26 0 -40.5 -16t-14.5 -39q0 -11 5.5 -40l16 -83t17.5 -97h29q8 48 19 100.5l16.5 80t5.5 39.5z" />
    <glyph glyph-name="numbersign" unicode="#" horiz-adv-x="643" 
d="M568 364v60h-105l52 177h-55l-51 -177h-106l51 177h-54l-51 -177h-145v-60h128l-35 -123h-122v-60h105l-53 -181h55l52 181h106l-52 -181h54l52 181h145v60h-128l35 123h122zM394 365l-37 -125h-107l36 125h108z" />
    <glyph glyph-name="dollar" unicode="$" horiz-adv-x="610" 
d="M497 283q-31 33 -101 59q-29 13 -63 25v226q45 0 75 -17q27 -16 29 -25q-11 -47 -11 -67q0 -16 16.5 -28t39.5 -12q44 0 44 53q0 50 -47 88q-54 46 -146 47v112h-41v-112q-83 -2 -140 -50q-58 -48 -58 -118q0 -108 119 -157q16 -7 28.5 -12t26.5 -10t24 -9v-247
q-102 2 -134 57q3 10 12 36q9 27 9 41q0 18 -15 30.5t-40 12.5q-48 0 -48 -60q0 -66 60 -109q61 -45 156 -46v-137h41v138q89 6 147 58q59 53 59 128q0 66 -42 105zM292 378q-3 2 -15 6.5t-16 6.5q-80 32 -80 109q0 40 32 66.5t79 26.5v-215zM447 139q0 -49 -29 -77.5
t-85 -31.5v236q2 -1 9.5 -4l12.5 -5q92 -34 92 -118z" />
    <glyph glyph-name="percent" unicode="%" horiz-adv-x="817" 
d="M385 529q0 81 -45.5 130.5t-120.5 49.5t-120.5 -49.5t-45.5 -130.5q0 -85 46 -133t120 -48t120 48t46 133zM302 529q0 -67 -21.5 -106t-61.5 -39t-61.5 39t-21.5 106q0 65 21 104.5t62 39.5q40 0 61.5 -39.5t21.5 -104.5zM764 165q0 81 -45.5 131t-119.5 50
q-75 0 -120.5 -50t-45.5 -131q0 -85 45.5 -133t119.5 -48t120 48t46 133zM682 165q0 -67 -22 -105.5t-62 -38.5t-61.5 38.5t-21.5 105.5q0 66 21.5 105.5t62.5 39.5q40 0 61.5 -39.5t21.5 -105.5zM732 695h-69l-574 -695h67z" />
    <glyph glyph-name="ampersand" unicode="&#x26;" horiz-adv-x="710" 
d="M710 404v35h-261v-35q44 -9 64.5 -18t20.5 -24q0 -71 -69 -179l-52 61.5l-65 77.5t-57 74q67 36 102 78t35 99q0 54 -35 92q-41 44 -117 44q-74 0 -120 -40q-52 -44 -52 -111q0 -30 11.5 -59.5t25.5 -51t47 -65.5q-89 -57 -119 -104q-32 -50 -32 -110q0 -92 63 -141
q55 -44 137 -44q57 0 111 31q44 27 81 69l72 -83h202v35q-30 2 -59 8q-34 7 -56 19q-21 15 -48 40q-28 28 -48 51q25 32 69 122q36 78 46 89q27 34 103 40zM365 563q0 -86 -95 -138q-39 51 -55.5 85t-16.5 66t18 57q26 33 64 33q85 0 85 -103zM403 111q-45 -60 -127 -60
q-62 0 -100.5 43.5t-38.5 110.5q0 98 72 149q26 -36 91 -117z" />
    <glyph glyph-name="quotesingle" unicode="'" horiz-adv-x="215" 
d="M163 692q0 23 -15 39t-40 16q-26 0 -40.5 -16t-14.5 -39q0 -10 6 -40l16 -82t17 -98h30q8 49 19 101l16.5 80t5.5 39z" />
    <glyph glyph-name="parenleft" unicode="(" horiz-adv-x="375" 
d="M342 -160v40q-191 35 -191 410q0 381 191 418v40q-134 -18 -209.5 -137t-75.5 -320q0 -199 76 -317t209 -134z" />
    <glyph glyph-name="parenright" unicode=")" horiz-adv-x="375" 
d="M318 291q0 201 -75.5 320t-209.5 137v-40q191 -37 191 -418q0 -375 -191 -410v-40q133 16 209 134t76 317z" />
    <glyph glyph-name="asterisk" unicode="*" horiz-adv-x="472" 
d="M431 537q0 34 -37 34q-7 0 -27 -4.5l-53 -11.5t-63 -10q23 30 51.5 61t39 45.5t10.5 26.5q0 14 -11 23t-26 9q-17 0 -30 -19q-3 -6 -18 -52.5t-31 -84.5q-18 40 -31 84q-11 41 -18 53q-10 19 -29 19q-13 0 -25 -10t-12 -22q0 -19 28 -48q43 -43 73 -85q-41 4 -88.5 15
t-54.5 11q-37 0 -37 -34q0 -35 37 -35q11 0 53 11q48 12 90 16q-24 -33 -73 -85q-28 -29 -28 -48q0 -14 11 -23t26 -9q16 0 29 19q4 7 9.5 23.5l16 49t23.5 65.5q15 -35 25 -66t15 -48t9 -24q13 -19 30 -19q13 0 25 10t12 22q0 17 -28 48q-60 67 -73 85q29 -3 62 -10t54 -12
t27 -5q37 0 37 35z" />
    <glyph glyph-name="plus" unicode="+" horiz-adv-x="643" 
d="M573 243v61h-220v220h-62v-220h-221v-61h221v-221h62v221h220z" />
    <glyph glyph-name="comma" unicode="," horiz-adv-x="270" 
d="M209 17q0 106 -84 106q-26 0 -44 -18.5t-18 -40.5q0 -29 18.5 -46t51.5 -17h25q-5 -41 -38 -83q-22 -26 -73 -58l23 -33q45 23 87 70q52 54 52 120z" />
    <glyph glyph-name="hyphen" unicode="-" horiz-adv-x="374" 
d="M333 227v77h-291v-77h291z" />
    <glyph glyph-name="hyphen" unicode="&#xad;" horiz-adv-x="374" 
d="M333 227v77h-291v-77h291z" />
    <glyph glyph-name="period" unicode="." horiz-adv-x="270" 
d="M203 56q0 27 -20 47t-47 20q-28 0 -47.5 -20t-19.5 -47t19.5 -46.5t47.5 -19.5q27 0 47 19.5t20 46.5z" />
    <glyph glyph-name="slash" unicode="/" horiz-adv-x="469" 
d="M425 744h-65l-336 -951h63z" />
    <glyph glyph-name="zero" unicode="0" horiz-adv-x="614" 
d="M501 456q-66 84 -194 84q-127 0 -193 -82q-64 -77 -64 -196q0 -123 64 -199q66 -79 193 -79q116 0 185 72q71 76 71 206q0 120 -62 194zM456 262q0 -112 -39.5 -178t-109.5 -66q-71 0 -110 66t-39 178q0 116 40 180t110 64q69 0 108.5 -64.5t39.5 -179.5z" />
    <glyph glyph-name="one" unicode="1" horiz-adv-x="430" 
d="M395 0v35q-18 0 -43 4t-41 10q-30 13 -30 51v289q0 79 5 151h-41q-20 -25 -62 -43.5t-92 -18.5h-27v-41h122v-343q0 -38 -32 -49q-10 -3 -42 -6l-26.5 -2.5t-19.5 -1.5v-35h329z" />
    <glyph glyph-name="two" unicode="2" horiz-adv-x="559" 
d="M511 0v86h-375q38 33 139 81q84 38 106 49q36 19 60 43q45 41 45 116t-59 120t-159 45q-90 0 -152 -50q-56 -45 -56 -102q0 -28 13 -45t37 -17q29 0 45 14t16 34q0 11 -13 79q14 21 42.5 34t59.5 13q54 0 85.5 -30t31.5 -89q0 -69 -25 -102q-27 -37 -97 -75
q-47 -24 -109 -63q-69 -46 -92 -75v-66h457z" />
    <glyph glyph-name="three" unicode="3" horiz-adv-x="552" 
d="M238 -178q114 0 188 58q75 58 75 152q0 86 -59 132q-44 33 -114 41v7q77 22 115 73q30 40 30 94q0 56 -39 100q-54 61 -161 61q-98 0 -160 -52q-56 -47 -56 -101q0 -26 12.5 -43.5t36.5 -17.5q29 0 45 13.5t16 33.5q0 13 -13 81q23 23 32 27q31 19 68 19q53 0 81.5 -31.5
t28.5 -92.5q0 -76 -30 -112t-97 -36h-42v-57h64q75 0 107 -40q27 -34 27 -97q0 -85 -46 -131q-38 -41 -104 -41q-44 0 -81 16q-26 12 -35 25q14 45 14 74q0 19 -16 33t-44 14q-25 0 -37.5 -18.5t-12.5 -44.5q0 -54 57 -97q62 -42 150 -42z" />
    <glyph glyph-name="four" unicode="4" horiz-adv-x="565" 
d="M529 44v64h-99v429h-64l-342 -418v-75h312v-222h94v222h99zM336 108h-263l263 320v-320z" />
    <glyph glyph-name="five" unicode="5" horiz-adv-x="528" 
d="M412 229q-63 47 -145 47q-73 0 -137 -46l26 207h310v87h-350l-41 -353l32 -12q50 63 134 63q62 0 100.5 -44.5t38.5 -114.5q0 -97 -42 -151q-38 -50 -106 -50q-43 0 -73 13q-19 9 -34 21q14 52 14 74q0 19 -16 34t-44 15q-25 0 -37.5 -18t-12.5 -44q0 -53 59 -94t144 -41
q111 0 182 68q72 68 72 173q0 109 -74 166z" />
    <glyph glyph-name="six" unicode="6" horiz-adv-x="566" 
d="M525 225q0 94 -58 155q-59 63 -139 63q-93 0 -170 -67q36 217 239 282l44 8l-9 44q-175 -24 -278 -144q-104 -119 -104 -294q0 -136 66 -211q63 -77 173 -77q98 0 169 70q67 69 67 171zM419 212q0 -87 -35.5 -138t-93.5 -51q-62 0 -99 65.5t-37 178.5q0 9 1 33t1 27
q56 60 129 60q61 0 97.5 -48t36.5 -127z" />
    <glyph glyph-name="seven" unicode="7" horiz-adv-x="502" 
d="M502 492v32h-459v-191h30q14 85 46 99q25 10 110 10h192l-328 -620h61z" />
    <glyph glyph-name="eight" unicode="8" horiz-adv-x="596" 
d="M545 184q0 63 -35 105.5t-117 77.5q61 27 94 71t33 95q0 76 -59 127q-58 51 -152 51q-95 0 -163 -54q-67 -52 -67 -133q0 -100 124 -170q-77 -30 -114.5 -72.5t-37.5 -104.5q0 -84 65 -140q64 -54 173 -54q114 0 185 59q71 60 71 142zM427 538q0 -109 -69 -154
q-99 39 -142 76q-40 36 -40 87q0 54 35 89.5t90 35.5t90.5 -37t35.5 -97zM448 161q0 -61 -40 -100t-107 -39q-70 0 -112.5 44.5t-42.5 116.5q0 106 91 154q121 -51 159 -80q52 -39 52 -96z" />
    <glyph glyph-name="nine" unicode="9" horiz-adv-x="566" 
d="M516 252q0 133 -65 210q-65 78 -174 78q-101 0 -168 -70q-68 -70 -68 -170q0 -94 59 -156t138 -62q92 0 170 66q-35 -212 -241 -277l-43 -8l8 -44q172 24 280 141q104 118 104 292zM412 258q0 -7 -0.5 -19.5t-0.5 -16.5q0 -7 -0.5 -12.5t-0.5 -8.5v-4q-54 -58 -129 -58
q-61 0 -97.5 47.5t-36.5 126.5q0 87 35.5 137.5t93.5 50.5q61 0 98.5 -65t37.5 -178z" />
    <glyph glyph-name="colon" unicode=":" horiz-adv-x="312" 
d="M223 417q0 27 -19.5 46.5t-47.5 19.5t-47.5 -19.5t-19.5 -46.5q0 -28 20 -47.5t47 -19.5q28 0 47.5 19.5t19.5 47.5zM223 56q0 27 -19.5 47t-47.5 20q-27 0 -47 -20t-20 -47t20 -46.5t47 -19.5q28 0 47.5 19.5t19.5 46.5z" />
    <glyph glyph-name="semicolon" unicode=";" horiz-adv-x="312" 
d="M223 417q0 27 -19.5 46.5t-47.5 19.5t-47.5 -19.5t-19.5 -46.5q0 -28 20 -47.5t47 -19.5q28 0 47.5 19.5t19.5 47.5zM231 17q0 106 -84 106q-26 0 -44 -18.5t-18 -40.5q0 -29 18.5 -46t51.5 -17h25q-5 -41 -38 -83q-25 -28 -73 -58l23 -33q45 23 87 70q52 58 52 120z" />
    <glyph glyph-name="semicolon" unicode="&#x37e;" horiz-adv-x="312" 
d="M223 417q0 27 -19.5 46.5t-47.5 19.5t-47.5 -19.5t-19.5 -46.5q0 -28 20 -47.5t47 -19.5q28 0 47.5 19.5t19.5 47.5zM231 17q0 106 -84 106q-26 0 -44 -18.5t-18 -40.5q0 -29 18.5 -46t51.5 -17h25q-5 -41 -38 -83q-25 -28 -73 -58l23 -33q45 23 87 70q52 58 52 120z" />
    <glyph glyph-name="less" unicode="&#x3c;" horiz-adv-x="643" 
d="M546 11v67l-376 195l376 196v67l-452 -235v-55z" />
    <glyph glyph-name="equal" unicode="=" horiz-adv-x="643" 
d="M568 333v62h-493v-62h493zM568 152v61h-493v-61h493z" />
    <glyph glyph-name="greater" unicode="&#x3e;" horiz-adv-x="643" 
d="M549 246v55l-452 235v-67l376 -196l-376 -195v-67z" />
    <glyph glyph-name="question" unicode="?" horiz-adv-x="479" 
d="M376 649q-55 60 -157 60q-74 0 -123 -38q-44 -34 -44 -75q0 -60 49 -60q28 0 44.5 14.5t16.5 33.5q0 12 -11 67q26 19 64 19q59 0 90 -39t31 -112q0 -77 -52 -115q-38 -27 -116 -35v-185h45v108q101 12 158.5 69t57.5 147q0 87 -53 141zM259 56q0 27 -19.5 47t-47.5 20
q-27 0 -47 -20t-20 -47t20 -46.5t47 -19.5q28 0 47.5 19.5t19.5 46.5z" />
    <glyph glyph-name="at" unicode="@" horiz-adv-x="929" 
d="M747 -58l-15 25q-99 -82 -247 -82q-143 0 -231 88q-93 95 -93 268q0 176 113 286q105 102 244 102q136 0 214 -80q73 -76 73 -194q0 -116 -51 -187q-50 -71 -126 -71q-45 0 -45 48q0 24 9 53l93 263h-73l-21 -55h-3q-5 29 -25.5 45t-49.5 16q-48 0 -92.5 -28.5
t-74.5 -71.5q-61 -87 -61 -164q0 -71 35 -106q30 -29 78 -29q63 0 114 78h4q3 -37 31.5 -58.5t70.5 -21.5q101 0 165 82q66 83 66 202q0 132 -79 220q-87 99 -248 99q-95 0 -178 -36t-141 -98q-58 -61 -89.5 -140t-31.5 -162q0 -184 126 -290q114 -96 273 -96q158 0 266 95z
M577 362l-56 -165q-49 -88 -109 -88q-43 0 -43 86q0 81 40 158q43 85 102 85q29 0 44 -18t22 -58z" />
    <glyph glyph-name="A" unicode="A" horiz-adv-x="671" 
d="M694 0v35q-32 0 -60 16q-30 22 -42 54l-231 598h-39l-113 -290l-115 -293q-17 -44 -51 -67q-23 -16 -63 -18v-35h261v35q-100 6 -100 43q0 16 11 55q16 51 37 107h243l58 -156q4 -7 4 -22q0 -10 -25 -17.5t-64 -9.5v-35h289zM415 283h-208l103 269z" />
    <glyph glyph-name="B" unicode="B" horiz-adv-x="654" 
d="M539 323q-54 37 -132 47v4q72 15 114 54q50 42 50 114q0 79 -66 118q-55 33 -135 33h-320v-35q32 -2 63 -16q28 -15 28 -50v-498q0 -35 -28 -48q-21 -8 -67 -11v-35h329q94 0 159 46q75 53 75 142q0 86 -70 135zM421 427q-35 -41 -114 -41h-62v266q42 2 79 2
q130 0 130 -122q0 -66 -33 -105zM489 206q0 -82 -38.5 -124.5t-111.5 -42.5q-94 0 -94 62v244q3 0 31.5 1t53.5 1q74 0 116.5 -39t42.5 -102z" />
    <glyph glyph-name="C" unicode="C" horiz-adv-x="642" 
d="M353 -16q99 0 167 45.5t109 145.5l-36 18q-24 -65 -73 -109q-55 -45 -131 -45q-103 0 -169 88q-65 85 -65 220q0 152 60 236t159 84q79 0 129 -71q44 -62 60 -150h41l-5 247h-39l-20 -33q-79 48 -172 48q-141 0 -234 -101q-96 -104 -96 -267q0 -159 95 -261
q92 -95 220 -95z" />
    <glyph glyph-name="D" unicode="D" horiz-adv-x="749" 
d="M711 342q0 185 -130 280q-99 71 -228 71h-303v-35q34 -2 63 -15q28 -15 28 -51v-500q0 -36 -28 -49q-22 -8 -67 -8v-35h287q152 0 259 83q119 92 119 259zM592 343q0 -140 -58 -220q-62 -83 -184 -83q-56 0 -80.5 17.5t-24.5 61.5v532q32 2 82 2q119 0 192 -86
q73 -85 73 -224z" />
    <glyph glyph-name="E" unicode="E" horiz-adv-x="653" 
d="M630 204h-35q-9 -26 -32 -70q-25 -50 -46 -71q-15 -15 -67 -21q-16 -2 -87 -2q-77 0 -97 15q-21 15 -21 76v208h78q61 0 85 -30q24 -32 29 -88h36v271h-36q-8 -55 -29 -82q-13 -18 -31 -24.5t-54 -6.5h-78v275h109q56 0 83 -4q31 -5 62 -46q32 -40 43 -78h36v167h-536
v-35q40 -2 71 -17q28 -13 28 -49v-498q0 -34 -28 -49q-7 -3 -32 -6q-4 -1 -39 -4v-35h575z" />
    <glyph glyph-name="F" unicode="F" horiz-adv-x="599" 
d="M585 520v173h-543v-35q40 -2 71 -17q28 -13 28 -49v-500q0 -36 -28 -49q-14 -5 -71 -8v-35h300v35q-9 0 -37 5q-23 4 -32 8q-28 15 -28 50v238h79q65 0 91 -31q9 -12 17.5 -39t10.5 -49h37v272h-37q-7 -59 -28 -82q-30 -31 -91 -31h-79v278h116q56 0 83 -4q31 -5 62 -48
q32 -42 43 -82h36z" />
    <glyph glyph-name="G" unicode="G" horiz-adv-x="725" 
d="M718 277v35h-303v-35q61 -3 86 -16q29 -11 29 -59v-38q0 -68 -4 -96q-17 -16 -53 -28.5t-76 -12.5q-114 0 -178 94q-62 85 -62 225q0 154 62 236q61 85 164 85q88 0 141 -68q40 -52 64 -148h40l-4 242h-39l-20 -33q-78 48 -179 48q-148 0 -248 -103q-100 -105 -100 -264
q0 -160 101 -261q96 -96 236 -96q121 0 255 60q-1 5 -1.5 16.5t-0.5 17.5v79v54q0 40 27 52q7 4 18.5 6.5t26.5 4.5t18 3z" />
    <glyph glyph-name="H" unicode="H" horiz-adv-x="815" 
d="M765 0v35q-34 0 -63 13q-28 16 -28 50v499q0 40 28 49q31 12 63 12v35h-287v-35q32 -2 64 -17q28 -12 28 -49v-210h-325v215q0 40 27 49q31 12 63 12v35h-287v-35q31 -2 64 -17q29 -12 29 -49v-500q0 -37 -29 -49q-13 -5 -64 -8v-35h287v35q-32 0 -63 13q-27 15 -27 50
v241h325v-247q0 -38 -28 -49q-13 -5 -64 -8v-35h287z" />
    <glyph glyph-name="I" unicode="I" horiz-adv-x="390" 
d="M351 0v35q-39 0 -73 13q-31 15 -31 49v501q0 39 31 48q34 12 73 12v35h-312v-35q35 -2 73 -17q19 -8 25 -18.5t6 -29.5v-502q0 -35 -31 -48q-15 -5 -73 -8v-35h312z" />
    <glyph glyph-name="J" unicode="J" horiz-adv-x="518" 
d="M491 658v35h-305v-35q49 -3 75 -17q29 -15 29 -49v-366q0 -95 -20 -146q-27 -60 -93 -60q-67 0 -90 41q7 21 30 53q20 29 20 59q0 27 -17.5 43.5t-47.5 16.5q-31 0 -49 -24.5t-18 -60.5q0 -75 49 -120t130 -45q97 0 160 71q51 57 51 133v410q0 40 28 49q33 12 68 12z" />
    <glyph glyph-name="K" unicode="K" horiz-adv-x="694" 
d="M720 0v35q-37 0 -63 13q-45 25 -78 66l-104 129q-40 52 -122 145q61 57 213 230q24 24 65 33q28 5 32 6h6t5 0.5t4 0.5h2v35h-260v-35q21 0 42 -5q30 -7 30 -19q0 -20 -16.5 -46t-57.5 -72q-73 -83 -164 -158h-9v239q0 40 28 49q31 12 64 12v35h-287v-35q31 -2 63 -17
q28 -15 28 -49v-500q0 -36 -28 -49q-14 -5 -63 -8v-35h287v35q-28 0 -64 13q-28 15 -28 50v241h12q161 -173 269 -339h194z" />
    <glyph glyph-name="L" unicode="L" horiz-adv-x="604" 
d="M604 206h-35q-10 -28 -37 -74q-22 -41 -46 -68q-11 -14 -53 -21q-29 -5 -75 -5q-78 0 -95 14q-18 15 -18 78v465q0 40 28 51q39 12 67 12v35h-292v-35q35 -2 65 -18q28 -15 28 -50v-496q0 -37 -28 -50q-18 -6 -65 -9v-35h541z" />
    <glyph glyph-name="M" unicode="M" horiz-adv-x="927" 
d="M882 0v35q-45 0 -67 13q-28 15 -28 50v499q0 40 28 49q31 12 66 12v35h-226q-3 -30 -23 -85l-170 -435l-198 520h-236v-35q54 -2 80 -27q29 -24 29 -82v-354q0 -68 -7 -95q-6 -28 -23 -42q-18 -16 -84 -23v-35h280v35q-9 0 -44 9q-35 11 -44 20q-31 28 -31 136v414h6
l226 -603h24l236 591h8v-504q0 -32 -30 -52q-10 -5 -36 -8t-42 -3v-35h306z" />
    <glyph glyph-name="N" unicode="N" horiz-adv-x="767" 
d="M759 658v35h-282v-35q18 -2 47 -10q32 -8 45 -18q30 -21 30 -136v-329l-390 528h-197v-35q19 -1 49 -13t47 -27q29 -27 29 -79v-342q0 -69 -7 -96q-6 -27 -23 -41q-7 -7 -39 -16q-32 -8 -45 -9v-35h285v35q-12 0 -47 9q-37 11 -46 20q-31 28 -31 139v357l420 -567h42v507
q0 114 30 135q12 8 40 15q30 8 43 8z" />
    <glyph glyph-name="O" unicode="O" horiz-adv-x="744" 
d="M607 611q-92 98 -235 98q-141 0 -234 -98q-99 -105 -99 -265t94 -260q95 -103 239 -103q140 0 233 98q100 100 100 265q0 162 -98 265zM535 120q-57 -93 -163 -93t-162 91q-53 87 -53 228q0 136 49 221q54 99 166 99q103 0 160 -88q55 -86 55 -232q0 -141 -52 -226z" />
    <glyph glyph-name="P" unicode="P" horiz-adv-x="610" 
d="M578 522q0 78 -60 124q-61 47 -157 47h-317v-35q38 -2 69 -12q28 -10 28 -52v-500q0 -37 -28 -50q-18 -6 -65 -9v-35h297v35q-45 0 -72 9q-28 11 -28 50v210h77q104 0 176 53q80 56 80 165zM430 404q-40 -57 -136 -57h-49v306h68q79 0 115 -49q29 -39 29 -106
q0 -54 -27 -94z" />
    <glyph glyph-name="Q" unicode="Q" horiz-adv-x="744" 
d="M607 611q-92 98 -235 98q-141 0 -234 -98q-99 -105 -99 -265q0 -154 91 -256q87 -100 231 -106q10 -86 64 -132q50 -40 121 -40q78 0 146 21v38q-45 -8 -95 -8q-45 0 -82 43q-36 42 -38 96q102 37 163 123q65 94 65 221q0 162 -98 265zM535 120q-57 -93 -163 -93t-162 91
q-53 87 -53 228q0 136 49 221q54 99 166 99q103 0 160 -88q55 -86 55 -232q0 -141 -52 -226z" />
    <glyph glyph-name="R" unicode="R" horiz-adv-x="702" 
d="M723 0v35q-36 0 -64 13q-41 21 -73 66l-83 113l-86 114q80 24 121 63q48 44 48 124q0 82 -66 127q-58 38 -152 38h-320v-35q32 -2 65 -12q28 -10 28 -51v-501q0 -37 -28 -50q-18 -6 -65 -9v-35h293v35q-41 0 -68 9q-28 11 -28 50v220h70q65 -83 109 -146l112 -168h187z
M466 517q0 -73 -44.5 -117t-112.5 -44h-64v297h83q66 0 102 -36.5t36 -99.5z" />
    <glyph glyph-name="S" unicode="S" horiz-adv-x="561" 
d="M479 318q-38 40 -104 66q-16 7 -63 25t-73 31q-82 39 -82 123q0 43 32.5 73t79.5 30q78 0 125 -62q30 -40 59 -141h40l-4 230h-39l-20 -33q-83 48 -155 48q-88 0 -148 -54q-62 -57 -62 -134q0 -126 124 -181q33 -16 144 -57q45 -18 69 -54t24 -78q0 -57 -31 -88
q-34 -34 -100 -34q-81 0 -138 63q-45 51 -72 146h-39l7 -237h39l21 35q80 -49 173 -49q100 0 168 59q68 60 68 152q0 72 -43 121z" />
    <glyph glyph-name="T" unicode="T" horiz-adv-x="619" 
d="M611 505v188h-604v-188h35q10 42 41 87q38 55 65 59q37 4 81 4h28v-559q0 -38 -31 -50q-9 -4 -39 -7q-10 -1 -23.5 -2.5t-17.5 -1.5v-35h327v35q-15 0 -44 6q-27 6 -37 9q-31 15 -31 51v554h29q53 0 80 -4q32 -6 66 -59q32 -48 41 -87h34z" />
    <glyph glyph-name="U" unicode="U" horiz-adv-x="756" 
d="M749 658v35h-284v-35q22 -2 45 -8q31 -6 47 -19q31 -20 31 -133v-285q0 -65 -37 -113q-47 -62 -147 -62t-142 61q-30 44 -30 115v383q0 40 28 49q31 12 65 12v35h-289v-35q37 -2 63 -16q28 -16 28 -50v-409q0 -83 66 -139q73 -61 193 -61q92 0 163 50q87 60 87 170v301
q0 112 30 132q31 22 83 22z" />
    <glyph glyph-name="V" unicode="V" horiz-adv-x="667" 
d="M687 658v35h-258v-35q36 -2 67 -11q36 -12 36 -32q0 -30 -21 -89q-15 -42 -66 -169l-85 -213l-115 307l-58 156q-6 14 -6 25q0 21 87 26v35h-287v-35q34 -2 60 -17q30 -21 41 -49l88 -237l137 -364h40l135 342l98 243q22 49 46 64q32 18 61 18z" />
    <glyph glyph-name="W" unicode="W" horiz-adv-x="976" 
d="M990 658v35h-251v-35q96 -7 96 -43q0 -22 -18 -91q-27 -108 -102 -366l-174 525h-48l-173 -514l-85 296l-40 142l-2 11q-2 11 -2 15q0 19 90 25v35h-283v-35q36 -2 58 -17q28 -18 36 -49l69 -246l101 -355h43l182 533l175 -533h45l179 585q14 42 46 63q33 19 58 19z" />
    <glyph glyph-name="X" unicode="X" horiz-adv-x="710" 
d="M711 0v35q-45 0 -65 10q-35 24 -66 69l-179 262l79 107l72 95q3 3 9.5 12t8.5 11.5l7.5 9t8 9t7.5 7t9 7l9.5 6t12.5 6.5q29 12 64 12v35h-258v-35q44 -2 62 -9t18 -23q0 -19 -40 -78l-95 -135l-89 137q-41 64 -41 82q0 13 30 19q28 5 59 7v35h-321v-35q45 -3 66 -12
q20 -9 31.5 -21.5t33.5 -44.5l166 -242l-87 -117l-80 -107q-35 -47 -72 -67q-19 -9 -65 -12v-35h259v35q-49 2 -64.5 9t-15.5 24q0 14 54 94q70 100 98 136l56.5 -87t43.5 -67q40 -64 40 -82q0 -25 -90 -27v-35h324z" />
    <glyph glyph-name="Y" unicode="Y" horiz-adv-x="615" 
d="M642 658v35h-241v-35q38 -2 61 -8q31 -8 31 -28q0 -23 -158 -276l-62 113l-47 86l-32 61q-11 24 -11 29q0 22 91 23v35h-295v-35q32 -2 57 -16q32 -23 57 -67l62 -113l65 -122q32 -66 32 -75v-168q0 -38 -30 -52q-9 -4 -39 -7q-26 -1 -40 -3v-35h324v35q-40 0 -79 15
q-32 15 -32 52v132q0 36 6 55q5 17 24 50l81 140q30 54 70 109q18 25 26 33t26 19q8 6 26 12t27 6z" />
    <glyph glyph-name="Z" unicode="Z" horiz-adv-x="602" 
d="M593 216h-34q-42 -96 -100 -152q-14 -14 -61 -20q-52 -5 -88 -5h-165l436 637v17h-519l-21 -196h34q21 54 61 99q41 47 72 53q26 5 82 5h159l-436 -637v-17h557z" />
    <glyph glyph-name="bracketleft" unicode="[" horiz-adv-x="375" 
d="M342 -151v45h-173v803h173v45h-260v-893h260z" />
    <glyph glyph-name="backslash" unicode="\" horiz-adv-x="469" 
d="M445 -207l-337 951h-64l337 -951h64z" />
    <glyph glyph-name="bracketright" unicode="]" horiz-adv-x="375" 
d="M293 -151v893h-260v-45h173v-803h-173v-45h260z" />
    <glyph glyph-name="asciicircum" unicode="^" horiz-adv-x="643" 
d="M550 389l-200 322h-56l-201 -322h71l158 256l157 -256h71z" />
    <glyph glyph-name="underscore" unicode="_" horiz-adv-x="643" 
d="M646 -138v50h-648v-50h648z" />
    <glyph glyph-name="grave" unicode="`" 
d="M361 558l-99 150q-26 43 -62 43q-17 0 -28.5 -11.5t-11.5 -26.5q0 -19 6.5 -28.5t27.5 -26.5l32.5 -26l55 -43l60.5 -47z" />
    <glyph glyph-name="a" unicode="a" horiz-adv-x="504" 
d="M491 9v31q-46 0 -55 5q-27 16 -27 50q0 42 1.5 118t1.5 123q0 92 -51 129q-40 30 -127 30q-64 0 -114 -33q-58 -35 -58 -79q0 -24 12.5 -40t35.5 -16q26 0 42 13.5t16 31.5q0 12 -4.5 35t-4.5 29q23 23 69 23q54 0 78 -44q14 -29 14 -59v-48q-25 -14 -91 -36l-89 -30
q-48 -19 -70 -45q-31 -36 -31 -89q0 -54 35 -87t89 -33q90 0 156 72h3q12 -70 90 -70q30 0 79 19zM321 267l-3 -169q-43 -56 -106 -56q-34 0 -54.5 20t-20.5 58q0 58 53 93q39 26 131 54z" />
    <glyph glyph-name="b" unicode="b" horiz-adv-x="560" 
d="M524 241q0 113 -60 183q-59 71 -148 71q-77 0 -137 -65l-3 1v318l-7 7l-177 -11v-32q51 -3 66 -13q27 -19 27 -57v-477q0 -121 -4 -185l30 -7l36 56q75 -45 150 -45q90 0 158 74q69 73 69 182zM422 238q0 -99 -36.5 -157.5t-96.5 -58.5q-43 0 -79 31q-26 26 -34 57v281
q43 49 106 49q69 0 108 -63q32 -56 32 -139z" />
    <glyph glyph-name="c" unicode="c" horiz-adv-x="454" 
d="M258 -13q56 0 108.5 34t85.5 91l-32 21q-28 -47 -60 -69.5t-78 -22.5q-66 0 -106 57q-40 58 -40 149q0 110 40 165q35 46 86 46q49 0 64 -25q0 -4 -6.5 -33t-6.5 -46q0 -19 16.5 -33t44.5 -14q25 0 37.5 17.5t12.5 44.5q0 57 -44 91.5t-116 34.5q-103 0 -167 -77
q-62 -74 -62 -175q0 -118 59.5 -187t163.5 -69z" />
    <glyph glyph-name="d" unicode="d" horiz-adv-x="574" 
d="M562 9v32q-44 0 -59 9q-25 17 -25 49v650l-8 7l-197 -11v-31q68 -6 87 -19q26 -18 26 -63v-168q-51 31 -122 31q-45 0 -88 -19.5t-73 -52.5q-68 -74 -68 -181q0 -113 63 -186q59 -70 146 -70q39 0 76.5 18t62.5 47l4 -1v-45l8 -7zM386 93q-46 -54 -108 -54q-69 0 -107 60
q-34 55 -34 137q0 104 39 163q40 59 98 59q42 0 78 -29q25 -24 34 -54v-282z" />
    <glyph glyph-name="e" unicode="e" horiz-adv-x="483" 
d="M463 113l-34 21q-30 -51 -61 -72t-75 -21q-82 0 -123 61q-38 55 -38 154h319v32q0 90 -44 145q-51 62 -152 62q-100 0 -161 -77q-59 -73 -59 -173q0 -109 56 -182q63 -76 174 -76q64 0 115.5 33.5t82.5 92.5zM355 297h-223q3 75 36.5 118t85.5 43q55 0 81 -50
q20 -37 20 -111z" />
    <glyph glyph-name="f" unicode="f" horiz-adv-x="325" 
d="M394 698q0 25 -23 41.5t-65 16.5q-85 0 -142 -68t-57 -178v-31h-95v-46h95v-351q0 -37 -27 -44q-12 -4 -44 -6v-32h254v32q-36 2 -65 11q-27 10 -27 44v346h124v46h-124v50q0 184 68 186l13.5 -20t18.5 -26q20 -23 48 -23q23 0 35.5 14.5t12.5 37.5z" />
    <glyph glyph-name="g" unicode="g" horiz-adv-x="509" 
d="M448 50q-39 35 -87 37q-15 1 -53 3q-38 3 -58 3q-53 2 -72 7q-35 7 -35 40q0 30 35 42h59q68 0 120 44q52 43 52 107q0 55 -36 97v3h113v46h-168q-52 16 -88 16q-78 0 -130 -44q-51 -44 -51 -112q0 -89 98 -136v-8q-73 -30 -73 -85q0 -37 28 -58q14 -11 57 -27v-6
q-61 -3 -99.5 -32.5t-38.5 -77.5q0 -126 217 -126q121 0 191 49q61 44 61 118q0 58 -42 100zM316 335q0 -53 -23 -86t-64 -33q-38 0 -61.5 34t-23.5 88q0 57 18 86q20 36 66 36q42 0 65 -33.5t23 -91.5zM410 -68q0 -56 -40.5 -84t-114.5 -28q-77 0 -116 29q-33 23 -33 62
t23 62.5t75 33.5q114 0 154 -7q52 -12 52 -68z" />
    <glyph glyph-name="h" unicode="h" horiz-adv-x="582" 
d="M558 0v32q-16 1 -44 10q-26 11 -26 44v250q0 77 -35 118t-99 41q-58 0 -100 -28q-24 -14 -64 -54h-2v336l-7 7l-178 -11v-32q53 -3 67 -12q27 -20 27 -58v-561q0 -36 -27 -44q-15 -4 -44 -6v-32h236v32q-27 2 -47 11q-27 11 -27 44v277q19 31 39 45q43 28 86 28
q36 0 59.5 -28.5t23.5 -78.5v-248q0 -37 -27 -44q-11 -4 -47 -6v-32h236z" />
    <glyph glyph-name="i" unicode="i" horiz-adv-x="293" 
d="M269 0v32q-13 1 -44 11q-27 10 -27 45v392l-7 7l-170 -10v-32q39 -2 59 -15q27 -19 27 -51v-297q0 -37 -27 -44q-12 -4 -44 -6v-32h233zM208 677q0 25 -18.5 44t-45.5 19q-25 0 -43 -20t-18 -47q0 -26 18 -45.5t43 -19.5q27 0 45.5 20.5t18.5 48.5z" />
    <glyph glyph-name="j" unicode="j" horiz-adv-x="292" 
d="M210 29v451l-6 7l-194 -10v-31q20 -2 44 -7q28 -4 38 -10q28 -21 28 -54v-362q0 -99 -16 -144t-53 -45q-5 7 -15.5 23.5t-15.5 23.5q-21 23 -48 23q-21 0 -33.5 -15.5t-12.5 -37.5q0 -25 23 -41.5t65 -16.5q82 0 139 68q57 65 57 178zM218 678q0 25 -18.5 43.5
t-45.5 18.5q-25 0 -43 -20t-18 -47q0 -25 18.5 -45t42.5 -20q27 0 45.5 21t18.5 49z" />
    <glyph glyph-name="k" unicode="k" horiz-adv-x="536" 
d="M545 0v32q-33 2 -50 11t-38 38l-73 99q-47 65 -90 118l57 55t36 35q52 43 121 63v30h-212v-31q62 -7 62 -28q0 -10 -13 -23q-31 -35 -75 -78l-82 -82v510l-7 7l-178 -11v-32q55 -3 67 -13q27 -20 27 -58v-560q0 -36 -27 -44q-15 -4 -44 -6v-32h236v32q-25 1 -47 11
q-27 10 -27 46v114l40 38l55.5 -74l69 -98l47.5 -69h145z" />
    <glyph glyph-name="l" unicode="l" horiz-adv-x="286" 
d="M261 0v32q-25 1 -45 11q-27 11 -27 45v661l-7 7l-181 -11v-32q50 -3 70 -16q27 -20 27 -57v-558q0 -36 -27 -44q-16 -4 -45 -6v-32h235z" />
    <glyph glyph-name="m" unicode="m" horiz-adv-x="881" 
d="M860 0v32q-20 1 -47 10q-26 11 -26 45v245q0 81 -35 122t-97 41q-57 0 -100 -29q-26 -17 -66 -57q-16 37 -50 61.5t-79 24.5q-58 0 -98 -28q-23 -15 -63 -55h-3v68l-7 7l-161 -10v-32q33 -2 51 -14q27 -19 27 -50v-299q0 -37 -27 -44q-11 -4 -44 -6v-32h234v32
q-28 2 -45 11q-27 11 -27 45v276q28 36 38 44q41 29 84 29q36 0 58.5 -28.5t22.5 -77.5v-249q0 -37 -27 -44q-12 -4 -41 -6v-32h230v32q-16 1 -44 10q-26 11 -26 45v278q18 28 38 44q40 28 84 28q35 0 58 -28.5t23 -77.5v-249q0 -37 -27 -44q-12 -4 -43 -6v-32h235z" />
    <glyph glyph-name="n" unicode="n" horiz-adv-x="591" 
d="M567 0v32q-24 1 -44 10q-26 11 -26 44v250q0 74 -34.5 116.5t-101.5 42.5q-57 0 -99 -28q-16 -10 -63 -54h-2v67l-7 7l-160 -10v-32q31 -2 49 -12q27 -19 27 -54v-297q0 -37 -27 -44q-11 -4 -44 -6v-32h236v32q-30 2 -47 11q-27 11 -27 44v277q11 23 39 45q43 28 86 28
q35 0 59 -29t24 -78v-248q0 -37 -27 -44q-11 -4 -47 -6v-32h236z" />
    <glyph glyph-name="o" unicode="o" horiz-adv-x="539" 
d="M504 246q0 114 -66 181q-65 68 -166 68q-106 0 -172 -72q-66 -71 -66 -184q0 -114 70 -186q66 -68 161 -68q112 0 177 77q62 73 62 184zM403 245q0 -104 -35.5 -163.5t-96.5 -59.5q-66 0 -104 67q-32 60 -32 158q0 87 29 142q34 69 107 69q68 0 103 -67q29 -54 29 -146z
" />
    <glyph glyph-name="p" unicode="p" horiz-adv-x="571" 
d="M475 424q-58 71 -146 71q-36 0 -74.5 -19.5t-63.5 -49.5l-4 1v54l-7 6l-164 -10v-32q36 -2 55 -13q26 -20 26 -51v-512q0 -36 -26 -46q-20 -5 -55 -7v-33h269v33q-27 0 -69 13q-28 10 -28 46v145h4q45 -33 117 -33q90 0 157 70q70 72 70 185q0 112 -61 182zM396 78
q-38 -55 -96 -55q-41 0 -75 27q-29 26 -37 52v285q46 53 105 53q72 0 108 -63q33 -53 33 -139q0 -99 -38 -160z" />
    <glyph glyph-name="q" unicode="q" horiz-adv-x="560" 
d="M563 -217v33q-35 2 -59 13q-26 11 -26 48v446q0 39 3 92q5 83 5 89l-28 4l-41 -64q-3 1 -12.5 7.5t-20 12.5t-19.5 10q-46 21 -99 21q-42 0 -85.5 -19t-74.5 -51q-71 -73 -71 -179q0 -117 63 -188q58 -71 150 -71q41 0 83 22q27 11 52 39l3 -1v-178q0 -37 -27 -46
q-19 -5 -56 -7v-33h260zM386 89q-44 -49 -103 -49q-75 0 -112 60q-34 50 -34 136q0 101 38.5 161.5t96.5 60.5q46 0 79 -28q25 -22 35 -53v-288z" />
    <glyph glyph-name="r" unicode="r" horiz-adv-x="410" 
d="M404 419q0 33 -19.5 53.5t-50.5 20.5t-68.5 -21t-66.5 -59h-2v67l-7 7l-160 -10v-32q31 -2 49 -12q27 -19 27 -54v-297q0 -37 -27 -44q-11 -4 -44 -6v-32h254v32q-45 2 -65 11q-27 10 -27 44v280q20 32 50.5 51.5t55.5 19.5q-5 -18 -5 -37q0 -18 15 -31.5t41 -13.5
q23 0 36.5 18.5t13.5 44.5z" />
    <glyph glyph-name="s" unicode="s" horiz-adv-x="432" 
d="M353 236q-40 33 -108 54q-71 24 -92 38q-30 19 -30 61q0 29 23.5 49t62.5 20q48 0 82.5 -32.5t44.5 -84.5h34l-8 155h-35l-11 -26q-48 25 -106 25q-74 0 -118 -41t-44 -100t49 -101q39 -31 99 -46q68 -21 92 -39q32 -23 32 -61q0 -40 -25.5 -61t-72.5 -21q-61 0 -105 51
q-39 44 -48 90h-33l5 -167h36l10 31q19 -15 54.5 -29t73.5 -14q79 0 129 42q51 43 51 110q0 60 -42 97z" />
    <glyph glyph-name="t" unicode="t" horiz-adv-x="345" 
d="M333 21v36q-21 -8 -70 -8t-65 29q-13 22 -13 86v269h137v46h-138v150h-89v-150h-89v-46h87v-327q0 -116 110 -116q52 0 130 31z" />
    <glyph glyph-name="u" unicode="u" horiz-adv-x="575" 
d="M551 9v32q-35 0 -48 9q-25 17 -25 48v382l-8 7l-175 -11v-32q54 -2 65 -9q26 -18 26 -50v-273q-13 -24 -38 -43q-37 -28 -83 -28q-35 0 -57.5 27.5t-22.5 77.5v334l-7 7l-161 -11v-32q32 -2 50 -12q26 -18 26 -51v-230q0 -80 33.5 -121.5t97.5 -41.5q59 0 100 27
q28 17 60 51h3v-61l8 -7z" />
    <glyph glyph-name="v" unicode="v" horiz-adv-x="497" 
d="M511 452v29h-184v-31q21 -3 39 -11q28 -9 28 -26q0 -14 -14 -48l-102 -244l-60 144l-56 139q-1 5 -3 10t-3 8t-1 4q0 11 22 15q23 6 36 6v34h-222v-32q57 -8 75 -51l166 -402h39q20 63 41 112l123 286q23 49 76 58z" />
    <glyph glyph-name="w" unicode="w" horiz-adv-x="737" 
d="M752 450v31h-183v-31q19 0 38 -8q27 -8 27 -26q0 -8 -9 -44q-12 -42 -41.5 -129.5l-37.5 -112.5l-125 342h-47l-123 -347l-86 279q-6 13 -6 22q0 10 17 15.5t36 5.5v34h-214v-32q22 -2 43 -16t29 -36l62 -186l71 -214h40l131 354l129 -354h42q14 56 34 110l95 281
q10 28 32.5 43.5t45.5 18.5z" />
    <glyph glyph-name="x" unicode="x" horiz-adv-x="505" 
d="M499 0v32q-28 2 -46 14t-33 35l-56 82l-72 103l100 131q31 37 94 54v30h-177v-31q48 -7 48 -25q0 -11 -5 -18q-5 -8 -82 -115l-83 125q-10 16 -10 21q0 11 46 11v32h-209v-32q46 0 75 -41l15.5 -23l21.5 -32t22 -31l61 -87l-72 -96t-40 -51q-35 -42 -91 -58v-30h178v31
q-56 6 -56 28q0 5 11 24l92 125l85 -127q15 -24 15 -31q0 -2 -1 -4t-2.5 -3t-3.5 -2.5t-5.5 -2t-6.5 -1.5t-7.5 -1.5t-8 -1t-9 -1t-9.5 -1.5v-32h221z" />
    <glyph glyph-name="y" unicode="y" horiz-adv-x="492" 
d="M-1 -157q0 -25 22 -42.5t59 -17.5q40 0 79 35q46 43 102 167l68 163l104 246q10 24 33 39t41 18v30h-179v-31q17 -1 42 -13q23 -11 23 -24q0 -10 -17 -54q-32 -84 -98 -240q-10 27 -59 146l-57 139q-7 19 -7 24q0 8 20 13q21 6 35 6v34h-219v-32q58 -8 75 -51l78 -189
l85 -207q-18 -45 -50 -97q-33 -56 -58 -69q-23 36 -29 41q-21 21 -47 21q-20 0 -33 -15.5t-13 -39.5z" />
    <glyph glyph-name="z" unicode="z" horiz-adv-x="444" 
d="M417 0v170h-30q-13 -51 -26 -87q-16 -41 -45 -41q-44 -3 -95 -3q-61 0 -84 1l277 421v20h-369v-148h30q18 86 47 98q27 11 110 11h67l-272 -416v-26h390z" />
    <glyph glyph-name="braceleft" unicode="{" horiz-adv-x="430" 
d="M397 -163v39q-59 2 -86 19q-40 24 -40 88v114q0 97 -48 140q-35 33 -119 49v15q81 15 119 50q48 42 48 139v114q0 67 40 89q27 15 86 17v40q-113 0 -161 -35q-57 -42 -57 -140q0 -20 4 -63.5t4 -61.5q0 -64 -41 -95q-33 -23 -111 -30v-63q77 -5 111 -29q41 -29 41 -96
q0 -18 -4 -61t-4 -63q0 -100 57 -142q50 -34 161 -34z" />
    <glyph glyph-name="bar" unicode="|" horiz-adv-x="375" 
d="M219 -207v951h-62v-951h62z" />
    <glyph glyph-name="braceright" unicode="}" horiz-adv-x="430" 
d="M395 262v63q-76 7 -111 30q-40 30 -40 95q0 18 3.5 61.5t3.5 63.5q0 98 -57 140q-48 35 -161 35v-40q59 -2 86 -17q40 -22 40 -89v-114q0 -97 48 -139q37 -35 120 -50v-15q-85 -16 -120 -49q-48 -43 -48 -140v-114q0 -64 -40 -88q-26 -17 -86 -19v-39q112 0 161 34
q57 42 57 142q0 20 -3.5 63t-3.5 61q0 68 40 96q31 24 111 29z" />
    <glyph glyph-name="asciitilde" unicode="~" horiz-adv-x="643" 
d="M580 349l-38 15q-21 -43 -43 -64.5t-53 -21.5q-10 0 -19.5 1.5t-21.5 6l-16 6t-21 10l-19 9.5q-68 33 -119 33q-29 0 -58.5 -15t-49.5 -37q-42 -45 -59 -91l39 -15q22 44 43 64.5t52 20.5q34 0 98 -33q66 -33 118 -33q58 0 108 52q38 35 59 92z" />
    <glyph glyph-name="exclamdown" unicode="&#xa1;" horiz-adv-x="331" 
d="M235 639q0 28 -20 47.5t-47 19.5t-47 -19.5t-20 -47.5q0 -27 20 -46.5t47 -19.5t47 19.5t20 46.5zM230 50q0 24 -17 172q-17 146 -27 262h-38q-11 -142 -27 -272q-16 -127 -16 -162q0 -28 18 -47t45 -19t44.5 19t17.5 47z" />
    <glyph glyph-name="cent" unicode="&#xa2;" horiz-adv-x="555" 
d="M508 114l-29 23q-60 -95 -151 -95q-3 0 -6 0.5t-4 0.5v418q55 -5 71 -28q0 -4 -7.5 -33t-7.5 -46q0 -20 14.5 -33.5t44.5 -13.5q52 0 52 62q0 57 -48 91t-119 36v127h-40v-130q-92 -12 -151 -84q-58 -70 -58 -165q0 -107 55.5 -175.5t153.5 -77.5v-137h40v137
q58 4 108.5 38t81.5 85zM278 49q-52 17 -81 69t-29 130q0 97 34 151q30 48 76 59v-409z" />
    <glyph glyph-name="sterling" unicode="&#xa3;" horiz-adv-x="622" 
d="M146 86v5q116 75 116 212h193v47h-193q0 37 -3 92q-2 74 -2 87q0 81 43 117q33 26 77 26q28 0 49 -12.5t29 -28.5q-15 -56 -15 -78q0 -20 17 -34t45 -14q25 0 38 17.5t13 43.5q0 56 -45 99q-48 46 -129 46q-100 0 -161 -67t-61 -171q0 -25 3 -64q1 -15 2.5 -34.5
t1.5 -24.5h-81v-47h81q0 -81 -19 -138q-26 -72 -88 -93v-72h512v86h-423z" />
    <glyph glyph-name="currency" unicode="&#xa4;" horiz-adv-x="571" 
d="M491 111l-91 92q21 30 21 70q0 38 -21 70l91 93l-44 42l-91 -90q-31 20 -70 20q-41 0 -71 -21l-90 91l-43 -42l89 -93q-20 -32 -20 -70q0 -37 20 -70l-89 -91l41 -44l92 91q32 -21 71 -21t71 21l92 -90zM365 273q0 -34 -23.5 -57.5t-55.5 -23.5q-33 0 -56 24t-23 57
q0 34 23 57.5t56 23.5q32 0 55.5 -24t23.5 -57z" />
    <glyph glyph-name="yen" unicode="&#xa5;" horiz-adv-x="615" 
d="M626 658v35h-230v-35q30 -1 55 -8q27 -8 27 -28q0 -13 -43 -86l-99 -166l-61 109l-43 78q-37 70 -37 78q0 11 17 16t65 7v35h-283v-35q33 -2 58 -16q32 -23 57 -67l73 -131q27 -46 72 -139v-32h-192v-46h192v-131q0 -40 -27 -51q-9 -4 -35 -7q-26 -2 -36 -3v-35h298v35
q-35 0 -71 15q-29 15 -29 51v126h192v46h-192v41l81 138q36 61 86 136q19 27 27 34q11 9 26 18q8 6 26 12t26 6z" />
    <glyph glyph-name="brokenbar" unicode="&#xa6;" horiz-adv-x="375" 
d="M219 353v391h-62v-391h62zM219 -207v395h-62v-395h62z" />
    <glyph glyph-name="section" unicode="&#xa7;" 
d="M441 310q0 103 -139 160q-80 31 -110 52q-40 27 -40 63q0 37 29 62t74 25q26 0 41 -5q5 -9 13.5 -29t14.5 -31q21 -30 47 -30q23 0 35.5 13t12.5 35q0 32 -28 54q-38 31 -118 31q-91 0 -145 -42q-51 -42 -51 -101q0 -42 24 -72.5t76 -55.5q-118 -49 -118 -148
q0 -58 35 -99t116 -73q86 -33 111 -61t25 -58q0 -34 -31 -61q-30 -27 -74 -27q-23 0 -41 5q-2 4 -12 27t-16 33q-17 30 -47 30q-23 0 -35.5 -13.5t-12.5 -35.5q0 -32 30 -54q41 -30 116 -30q88 0 145 43q52 43 52 108q0 87 -101 130q56 21 89 63.5t33 91.5zM365 287
q0 -71 -81 -118q-79 32 -114.5 64t-35.5 78q0 75 84 110q147 -51 147 -134z" />
    <glyph glyph-name="dieresis" unicode="&#xa8;" 
d="M413 666q0 25 -17 42.5t-41 17.5t-41 -17.5t-17 -42.5t17 -42.5t41 -17.5t41 17.5t17 42.5zM203 666q0 25 -17 42.5t-41 17.5t-41 -17.5t-17 -42.5t17 -42.5t41 -17.5t41 17.5t17 42.5z" />
    <glyph glyph-name="copyright" unicode="&#xa9;" horiz-adv-x="942" 
d="M903 294q0 179 -127 305q-128 126 -305 126q-179 0 -306 -126q-126 -126 -126 -305t126 -305q127 -126 306 -126q177 0 305 126q127 126 127 305zM854 294q0 -159 -112 -274q-111 -114 -271 -114q-159 0 -272 114q-112 115 -112 274q0 160 112 273q112 115 272 115
t271 -115q112 -113 112 -273zM671 197l-28 12q-48 -108 -143 -108q-68 0 -114 52q-45 53 -45 141q0 94 37 149t97 55q63 0 103 -43q29 -32 49 -98h27l-3 177h-28l-22 -32q-16 12 -48 21.5t-59 9.5q-112 0 -182 -70q-72 -69 -72 -174q0 -109 67 -171q64 -64 172 -64
q72 0 126 46q42 36 66 97z" />
    <glyph glyph-name="ordfeminine" unicode="&#xaa;" 
d="M456 316v30q-38 0 -47 4q-23 12 -23 40q0 66 1 93q2 54 2 98q0 74 -44 105q-37 23 -107 23q-50 0 -97 -27q-46 -25 -46 -63q0 -19 9.5 -33t29.5 -14q23 0 38 10t15 25q0 9 -3.5 27t-3.5 21q19 19 53 19q44 0 65 -36q12 -23 12 -48v-27q-25 -13 -71 -27q-32 -10 -79 -28
q-42 -16 -58 -34q-26 -31 -26 -77q0 -42 29 -70t73 -28q72 0 131 61h3q11 -59 74 -59q23 0 70 15zM311 525l-2 -130q-37 -42 -90 -42q-57 0 -57 62q0 44 42 69q30 18 107 41z" />
    <glyph glyph-name="guillemotleft" unicode="&#xab;" horiz-adv-x="581" 
d="M487 78l-127 180l127 179l-24 21l-172 -161q-22 -22 -22 -39q0 -22 21 -37l173 -162zM301 78l-127 180l127 179l-24 21l-172 -161q-22 -22 -22 -39q0 -22 21 -37l173 -162z" />
    <glyph glyph-name="logicalnot" unicode="&#xac;" horiz-adv-x="643" 
d="M568 37v281h-498v-61h433v-220h65z" />
    <glyph glyph-name="registered" unicode="&#xae;" horiz-adv-x="942" 
d="M903 294q0 179 -127 305q-128 126 -305 126q-179 0 -306 -126q-126 -126 -126 -305t126 -305q127 -126 306 -126q177 0 305 126q127 126 127 305zM854 294q0 -159 -112 -274q-111 -114 -271 -114q-159 0 -272 114q-112 115 -112 274q0 160 112 273q112 115 272 115
t271 -115q112 -113 112 -273zM753 71v28q-25 2 -45 9q-29 8 -53 38l-115 142q115 30 115 129q0 56 -48 83q-41 25 -101 25h-240v-28q19 -2 46 -10q20 -8 20 -33v-314q0 -26 -20 -33q-11 -5 -46 -8v-28h214v28q-36 3 -48 8q-21 6 -21 33v128h51q76 -93 151 -197h140zM564 407
q0 -48 -29.5 -75t-80.5 -27h-43v185h57q96 0 96 -83z" />
    <glyph glyph-name="overscore" unicode="&#xaf;" horiz-adv-x="643" 
d="M646 783v49h-648v-49h648z" />
    <glyph glyph-name="degree" unicode="&#xb0;" horiz-adv-x="419" 
d="M369 551q0 67 -45 112q-45 46 -115 46q-67 0 -113 -45q-45 -44 -45 -113q0 -66 44 -113q43 -46 114 -46q70 0 115 46t45 113zM296 547q0 -55 -25 -86.5t-60 -31.5q-42 0 -65 33t-23 90q0 55 23 88t63 33t63.5 -33t23.5 -93z" />
    <glyph glyph-name="plusminus" unicode="&#xb1;" horiz-adv-x="643" 
d="M570 0v61h-217v196h217v61h-217v221h-62v-221h-218v-61h218v-196h-218v-61h497z" />
    <glyph glyph-name="twosuperior" unicode="&#xb2;" 
d="M439 239v71h-303q27 24 73 51q48 27 77 41q64 33 91 62q40 40 40 110q0 62 -47.5 98.5t-125.5 36.5q-66 0 -118 -35q-51 -34 -51 -78q0 -21 10.5 -35.5t32.5 -14.5q25 0 39 10.5t14 26.5q0 18 -10 58q21 32 76 32q40 0 63.5 -25t23.5 -71q0 -57 -30 -94q-24 -32 -70 -62
q-121 -75 -152 -128v-54h367z" />
    <glyph glyph-name="threesuperior" unicode="&#xb3;" 
d="M388 453q-32 24 -84 30v5q56 16 83 49q22 25 22 63q0 36 -30 67q-42 42 -127 42q-77 0 -127 -35q-44 -35 -44 -70q0 -45 43 -45q23 0 37.5 10.5t14.5 23.5q0 17 -9 53q22 28 69 28q38 0 58.5 -19.5t20.5 -55.5q0 -51 -22 -74.5t-72 -23.5h-37v-45h52q57 0 81 -26
q19 -20 19 -61q0 -54 -29.5 -82.5t-79.5 -28.5q-54 0 -82 26q10 40 10 49q0 15 -14 25.5t-38 10.5q-18 0 -29.5 -13.5t-11.5 -35.5q0 -42 48 -70q47 -28 114 -28q93 0 149 41q57 42 57 104q0 53 -42 86z" />
    <glyph glyph-name="acute" unicode="&#xb4;" 
d="M340 713q0 15 -11.5 26.5t-28.5 11.5q-36 0 -62 -43l-38 -59l-61 -91l19 -16l79.5 62l68.5 54q34 25 34 55z" />
    <glyph glyph-name="mu1" unicode="&#xb5;" horiz-adv-x="566" 
d="M553 9v32q-45 0 -56 5q-27 12 -27 53v382h-93v-368q-13 -23 -37 -42q-34 -26 -82 -26q-36 0 -58 28t-22 78v330h-93v-415q0 -43 -5 -87q-3 -23 -12 -71q-9 -46 -9 -76q0 -22 12.5 -35.5t32.5 -13.5q19 0 33.5 13.5t14.5 36.5q0 26 -13 79t-13 89v28h3q32 -39 93 -39
q55 0 94 23q20 11 59 53h3q14 -75 95 -75q29 0 80 18z" />
    <glyph glyph-name="paragraph" unicode="&#xb6;" 
d="M488 657v36h-252q-84 0 -136 -49q-52 -48 -52 -127q0 -81 56 -126.5t151 -45.5v-450h51v762h78v-762h50v762h54z" />
    <glyph glyph-name="middot" unicode="&#xb7;" horiz-adv-x="279" 
d="M208 273q0 27 -20 47t-47 20q-28 0 -47.5 -20t-19.5 -47t19.5 -46.5t47.5 -19.5q27 0 47 19.5t20 46.5z" />
    <glyph glyph-name="cedilla" unicode="&#xb8;" 
d="M308 -63q-30 15 -76 15v56h-38v-109q28 0 53 -6q27 -7 27 -31q0 -28 -41 -39q-21 -5 -83 -5v-35q86 0 136 18q59 25 59 78q0 39 -37 58z" />
    <glyph glyph-name="onesuperior" unicode="&#xb9;" 
d="M385 239v35q-49 0 -73 10q-21 8 -21 33v273q0 33 1 57q0 10 0.5 30.5t1.5 28.5h-35q-18 -20 -51 -33.5t-70 -13.5h-31v-38h101v-308q0 -23 -21 -32q-13 -4 -37 -5q-34 -2 -41 -2v-35h276z" />
    <glyph glyph-name="ordmasculine" unicode="&#xba;" 
d="M443 507q0 89 -53 145q-52 57 -138 57q-87 0 -141 -58q-54 -59 -54 -150q0 -90 55 -148q56 -57 134 -57q92 0 144 60q53 62 53 151zM329 383q-27 -51 -78 -51q-52 0 -80 53q-25 47 -25 123q0 67 22 111q28 54 83 54q54 0 80 -52q22 -44 22 -115q0 -73 -24 -123z" />
    <glyph glyph-name="guillemotright" unicode="&#xbb;" horiz-adv-x="581" 
d="M498 258q0 17 -22 39l-172 161l-24 -21l127 -179l-127 -180l24 -19l174 162q20 20 20 37zM312 258q0 17 -22 39l-172 161l-24 -21l127 -179l-127 -180l24 -19l174 162q20 20 20 37z" />
    <glyph glyph-name="onequarter" unicode="&#xbc;" horiz-adv-x="1050" 
d="M342 239v35q-49 0 -73 10q-21 8 -21 33v273q0 33 1 57q0 10 0.5 30.5t1.5 28.5h-35q-18 -20 -51 -33.5t-70 -13.5h-31v-38h101v-308q0 -23 -21 -32q-13 -4 -37 -5q-34 -2 -41 -2v-35h276zM706 693h-66l-360 -693h66zM970 104v53h-77v312h-58l-265 -304v-61h242v-114h81
v114h77zM812 157h-192l192 221v-221z" />
    <glyph glyph-name="onehalf" unicode="&#xbd;" horiz-adv-x="1050" 
d="M342 239v35q-49 0 -73 10q-21 8 -21 33v273q0 33 1 57q0 10 0.5 30.5t1.5 28.5h-35q-18 -20 -51 -33.5t-70 -13.5h-31v-38h101v-308q0 -23 -21 -32q-13 -4 -37 -5q-34 -2 -41 -2v-35h276zM701 693h-66l-360 -693h66zM998 0v71h-303q27 24 73 51q48 27 77 41q64 33 91 62
q40 40 40 110q0 62 -47.5 98.5t-125.5 36.5q-66 0 -118 -35q-51 -35 -51 -78q0 -21 10.5 -35.5t32.5 -14.5q25 0 39 10.5t14 26.5q0 18 -10 58q21 32 76 32q40 0 63.5 -25t23.5 -71q0 -56 -30 -94q-24 -32 -70 -62q-121 -75 -152 -128v-54h367z" />
    <glyph glyph-name="threequarters" unicode="&#xbe;" horiz-adv-x="1050" 
d="M383 453q-32 24 -84 30v5q56 16 83 49q22 25 22 63q0 36 -30 67q-42 42 -127 42q-77 0 -127 -35q-44 -35 -44 -70q0 -45 43 -45q23 0 37.5 10.5t14.5 23.5q0 17 -9 53q22 28 69 28q38 0 58.5 -19.5t20.5 -55.5q0 -51 -22 -74.5t-72 -23.5h-37v-45h52q57 0 81 -26
q19 -20 19 -61q0 -54 -29.5 -82.5t-79.5 -28.5q-54 0 -82 26q10 40 10 49q0 15 -14 25.5t-38 10.5q-18 0 -29.5 -13.5t-11.5 -35.5q0 -42 48 -70q47 -28 114 -28q93 0 149 41q57 42 57 104q0 53 -42 86zM780 693h-66l-360 -693h66zM1014 104v53h-77v312h-58l-265 -304v-61
h242v-114h81v114h77zM856 157h-192l192 221v-221z" />
    <glyph glyph-name="questiondown" unicode="&#xbf;" horiz-adv-x="479" 
d="M353 640q0 27 -20 46.5t-47 19.5t-47 -19.5t-20 -46.5t20 -47t47 -20t47 20t20 47zM427 100q0 26 -12 43t-37 17q-28 0 -44.5 -14.5t-16.5 -33.5q0 -23 11 -67q-26 -19 -64 -19q-60 0 -91 39t-31 112q0 76 53 115q39 29 115 35v185h-45v-108q-100 -11 -158 -68.5
t-58 -147.5q0 -84 53 -141q58 -60 158 -60q71 0 122 38q45 35 45 75z" />
    <glyph glyph-name="Agrave" unicode="&#xc0;" horiz-adv-x="671" 
d="M694 0v35q-32 0 -60 16q-30 22 -42 54l-231 598h-39l-113 -290l-115 -293q-17 -44 -51 -67q-23 -16 -63 -18v-35h261v35q-100 6 -100 43q0 16 11 55q16 51 37 107h243l58 -156q4 -7 4 -22q0 -10 -25 -17.5t-64 -9.5v-35h289zM415 283h-208l103 269zM458 755l-128 126
q-30 31 -56 31q-21 0 -33 -11t-12 -28q0 -19 10 -30.5t35 -24.5q12 -7 36.5 -18.5l64 -30.5l68.5 -33z" />
    <glyph glyph-name="Aacute" unicode="&#xc1;" horiz-adv-x="671" 
d="M694 0v35q-32 0 -60 16q-30 22 -42 54l-231 598h-39l-113 -290l-115 -293q-17 -44 -51 -67q-23 -16 -63 -18v-35h261v35q-100 6 -100 43q0 16 11 55q16 51 37 107h243l58 -156q4 -7 4 -22q0 -10 -25 -17.5t-64 -9.5v-35h289zM415 283h-208l103 269zM436 818q45 22 45 55
q0 17 -13 28t-32 11q-28 0 -56 -31l-128 -126l15 -19l68.5 33l64 30.5t36.5 18.5z" />
    <glyph glyph-name="Acircumflex" unicode="&#xc2;" horiz-adv-x="671" 
d="M694 0v35q-32 0 -60 16q-30 22 -42 54l-231 598h-39l-113 -290l-115 -293q-17 -44 -51 -67q-23 -16 -63 -18v-35h261v35q-100 6 -100 43q0 16 11 55q16 51 37 107h243l58 -156q4 -7 4 -22q0 -10 -25 -17.5t-64 -9.5v-35h289zM415 283h-208l103 269zM501 751l-116 141
q-6 8 -9.5 11t-11.5 6t-21 3q-19 0 -27.5 -4.5t-17.5 -17.5l-115 -139l24 -15l134 103l136 -103z" />
    <glyph glyph-name="Atilde" unicode="&#xc3;" horiz-adv-x="671" 
d="M694 0v35q-32 0 -60 16q-30 22 -42 54l-231 598h-39l-113 -290l-115 -293q-17 -44 -51 -67q-23 -16 -63 -18v-35h261v35q-100 6 -100 43q0 16 11 55q16 51 37 107h243l58 -156q4 -7 4 -22q0 -10 -25 -17.5t-64 -9.5v-35h289zM415 283h-208l103 269zM531 891l-30 12
q-18 -39 -26 -48q-12 -18 -50 -18q-9 0 -17.5 2.5t-13.5 5t-15.5 8.5l-15.5 9q-48 25 -84 25q-43 0 -80 -42q-29 -40 -42 -76l29 -12q28 47 30 49q16 17 39 17q18 0 66 -25q42 -25 85 -25t83 42q29 32 42 76z" />
    <glyph glyph-name="Adieresis" unicode="&#xc4;" horiz-adv-x="671" 
d="M694 0v35q-32 0 -60 16q-30 22 -42 54l-231 598h-39l-113 -290l-115 -293q-17 -44 -51 -67q-23 -16 -63 -18v-35h261v35q-100 6 -100 43q0 16 11 55q16 51 37 107h243l58 -156q4 -7 4 -22q0 -10 -25 -17.5t-64 -9.5v-35h289zM415 283h-208l103 269zM506 839
q0 25 -16.5 42.5t-40.5 17.5t-41 -17.5t-17 -42.5t17 -42.5t41 -17.5t40.5 17.5t16.5 42.5zM287 839q0 25 -17 42.5t-41 17.5t-40.5 -17.5t-16.5 -42.5t16.5 -42.5t40.5 -17.5t41 17.5t17 42.5z" />
    <glyph glyph-name="Aring" unicode="&#xc5;" horiz-adv-x="671" 
d="M694 0v35q-33 0 -60 16q-30 22 -42 54l-229 591q47 6 75 36t28 72q0 48 -35.5 78t-90.5 30q-53 0 -89.5 -30.5t-36.5 -77.5q0 -44 28 -73t77 -35l-114 -294l-111 -282q-17 -44 -51 -67q-23 -16 -63 -18v-35h261v35q-100 6 -100 43q0 18 11 55q16 51 37 107h243l58 -156
q4 -7 4 -22q0 -10 -25 -17.5t-64 -9.5v-35h289zM415 283h-208l103 269zM405 804q0 -35 -17 -57t-48 -22q-30 0 -47 22t-17 57t17 56t47 21q31 0 48 -21.5t17 -55.5z" />
    <glyph glyph-name="AE" unicode="&#xc6;" horiz-adv-x="971" 
d="M948 204h-35q-9 -26 -32 -70q-27 -51 -47 -71q-14 -15 -64 -21q-15 -2 -84 -2q-76 0 -98 15q-21 16 -21 76v208h73q34 0 52.5 -6t33.5 -24q23 -30 28 -88h37v271h-37q-7 -52 -28 -82q-13 -17 -31.5 -24t-54.5 -7h-73v275h104q57 0 84 -4q30 -5 62 -46q33 -40 42 -78h37
v167h-605v-35q63 -2 83 -11l-299 -528q-28 -48 -59 -66q-28 -16 -63 -18v-35h255v35q-82 4 -82 48q0 19 15 49q30 60 48 93l40 69h234v-200q0 -34 -28 -49q-9 -4 -35 -7l-36 -3v-35h571zM463 337h-211l173 313h38v-313z" />
    <glyph glyph-name="Ccedilla" unicode="&#xc7;" horiz-adv-x="642" 
d="M327 -15v-86q35 0 53 -6q27 -8 27 -31q0 -28 -41 -39q-21 -5 -83 -5v-35q87 0 135 18q60 24 60 78q0 40 -38 58q-30 15 -75 15v32q190 6 264 191l-36 18q-24 -65 -73 -109q-55 -45 -131 -45q-103 0 -169 88q-65 85 -65 220q0 152 60 236t159 84q79 0 129 -71
q44 -62 60 -150h41l-5 247h-39l-20 -33q-79 48 -172 48q-141 0 -234 -101q-96 -104 -96 -267q0 -159 95 -261q78 -83 194 -94z" />
    <glyph glyph-name="Egrave" unicode="&#xc8;" horiz-adv-x="653" 
d="M630 204h-35q-9 -26 -32 -70q-25 -50 -46 -71q-15 -15 -67 -21q-16 -2 -87 -2q-77 0 -97 15q-21 15 -21 76v208h78q61 0 85 -30q24 -32 29 -88h36v271h-36q-8 -55 -29 -82q-13 -18 -31 -24.5t-54 -6.5h-78v275h109q56 0 83 -4q31 -5 62 -46q32 -40 43 -78h36v167h-536
v-35q40 -2 71 -17q28 -13 28 -49v-498q0 -34 -28 -49q-7 -3 -32 -6q-4 -1 -39 -4v-35h575zM413 755l-128 126q-30 31 -56 31q-21 0 -33 -11t-12 -28q0 -19 10 -30.5t35 -24.5q12 -7 36.5 -18.5l64 -30.5l68.5 -33z" />
    <glyph glyph-name="Eacute" unicode="&#xc9;" horiz-adv-x="653" 
d="M630 204h-35q-9 -26 -32 -70q-25 -50 -46 -71q-15 -15 -67 -21q-16 -2 -87 -2q-77 0 -97 15q-21 15 -21 76v208h78q61 0 85 -30q24 -32 29 -88h36v271h-36q-8 -55 -29 -82q-13 -18 -31 -24.5t-54 -6.5h-78v275h109q56 0 83 -4q31 -5 62 -46q32 -40 43 -78h36v167h-536
v-35q40 -2 71 -17q28 -13 28 -49v-498q0 -34 -28 -49q-7 -3 -32 -6q-4 -1 -39 -4v-35h575zM425 818q45 22 45 55q0 17 -13 28t-32 11q-28 0 -56 -31l-128 -126l15 -19l68.5 33l64 30.5t36.5 18.5z" />
    <glyph glyph-name="Ecircumflex" unicode="&#xca;" horiz-adv-x="653" 
d="M630 204h-35q-9 -26 -32 -70q-25 -50 -46 -71q-15 -15 -67 -21q-16 -2 -87 -2q-77 0 -97 15q-21 15 -21 76v208h78q61 0 85 -30q24 -32 29 -88h36v271h-36q-8 -55 -29 -82q-13 -18 -31 -24.5t-54 -6.5h-78v275h109q56 0 83 -4q31 -5 62 -46q32 -40 43 -78h36v167h-536
v-35q40 -2 71 -17q28 -13 28 -49v-498q0 -34 -28 -49q-7 -3 -32 -6q-4 -1 -39 -4v-35h575zM491 751l-116 141q-6 8 -9.5 11t-11.5 6t-21 3q-19 0 -27.5 -4.5t-17.5 -17.5l-115 -139l24 -15l134 103l136 -103z" />
    <glyph glyph-name="Edieresis" unicode="&#xcb;" horiz-adv-x="653" 
d="M630 204h-35q-9 -26 -32 -70q-25 -50 -46 -71q-15 -15 -67 -21q-16 -2 -87 -2q-77 0 -97 15q-21 15 -21 76v208h78q61 0 85 -30q24 -32 29 -88h36v271h-36q-8 -55 -29 -82q-13 -18 -31 -24.5t-54 -6.5h-78v275h109q56 0 83 -4q31 -5 62 -46q32 -40 43 -78h36v167h-536
v-35q40 -2 71 -17q28 -13 28 -49v-498q0 -34 -28 -49q-7 -3 -32 -6q-4 -1 -39 -4v-35h575zM503 845q0 25 -16.5 42.5t-40.5 17.5t-41 -17.5t-17 -42.5t17 -42.5t41 -17.5t40.5 17.5t16.5 42.5zM284 845q0 25 -17 42.5t-41 17.5t-40.5 -17.5t-16.5 -42.5t16.5 -42.5
t40.5 -17.5t41 17.5t17 42.5z" />
    <glyph glyph-name="Igrave" unicode="&#xcc;" horiz-adv-x="390" 
d="M351 0v35q-39 0 -73 13q-31 15 -31 49v501q0 39 31 48q34 12 73 12v35h-312v-35q35 -2 73 -17q19 -8 25 -18.5t6 -29.5v-502q0 -35 -31 -48q-15 -5 -73 -8v-35h312zM329 755l-128 126q-30 31 -56 31q-21 0 -33 -11t-12 -28q0 -19 10 -30.5t35 -24.5q12 -7 36.5 -18.5
l64 -30.5l68.5 -33z" />
    <glyph glyph-name="Iacute" unicode="&#xcd;" horiz-adv-x="390" 
d="M351 0v35q-39 0 -73 13q-31 15 -31 49v501q0 39 31 48q34 12 73 12v35h-312v-35q35 -2 73 -17q19 -8 25 -18.5t6 -29.5v-502q0 -35 -31 -48q-15 -5 -73 -8v-35h312zM266 818q45 22 45 55q0 17 -13 28t-32 11q-28 0 -56 -31l-128 -126l15 -19l68.5 33l64 30.5t36.5 18.5z
" />
    <glyph glyph-name="Icircumflex" unicode="&#xce;" horiz-adv-x="390" 
d="M351 0v35q-39 0 -73 13q-31 15 -31 49v501q0 39 31 48q34 12 73 12v35h-312v-35q35 -2 73 -17q19 -8 25 -18.5t6 -29.5v-502q0 -35 -31 -48q-15 -5 -73 -8v-35h312zM354 751l-116 141q-6 8 -9.5 11t-11.5 6t-21 3q-19 0 -27.5 -4.5t-17.5 -17.5l-115 -139l24 -15l134 103
l136 -103z" />
    <glyph glyph-name="Idieresis" unicode="&#xcf;" horiz-adv-x="390" 
d="M351 0v35q-39 0 -73 13q-31 15 -31 49v501q0 39 31 48q34 12 73 12v35h-312v-35q35 -2 73 -17q19 -8 25 -18.5t6 -29.5v-502q0 -35 -31 -48q-15 -5 -73 -8v-35h312zM358 845q0 25 -17 42.5t-41 17.5t-41 -17.5t-17 -42.5t17 -42.5t41 -17.5t41 17.5t17 42.5zM148 845
q0 25 -17 42.5t-41 17.5t-41 -17.5t-17 -42.5t17 -42.5t41 -17.5t41 17.5t17 42.5z" />
    <glyph glyph-name="Eth" unicode="&#xd0;" horiz-adv-x="749" 
d="M711 342q0 185 -130 280q-99 71 -228 71h-303v-35q34 -2 63 -15q28 -15 28 -51v-202h-91v-48h91v-250q0 -36 -28 -49q-22 -8 -67 -8v-35h287q152 0 259 83q119 92 119 259zM592 343q0 -140 -58 -220q-62 -83 -184 -83q-56 0 -80.5 17.5t-24.5 61.5v223h147v48h-147v261
q32 2 82 2q119 0 192 -86q73 -85 73 -224z" />
    <glyph glyph-name="Ntilde" unicode="&#xd1;" horiz-adv-x="767" 
d="M759 658v35h-282v-35q18 -2 47 -10q32 -8 45 -18q30 -21 30 -136v-329l-390 528h-197v-35q19 -1 49 -13t47 -27q29 -27 29 -79v-342q0 -69 -7 -96q-6 -27 -23 -41q-7 -7 -39 -16q-32 -8 -45 -9v-35h285v35q-12 0 -47 9q-37 11 -46 20q-31 28 -31 139v357l420 -567h42v507
q0 114 30 135q12 8 40 15q30 8 43 8zM583 896l-30 12q-18 -39 -26 -48q-12 -18 -50 -18q-9 0 -17.5 2.5t-13.5 5t-15.5 8.5l-15.5 9q-48 25 -84 25q-43 0 -80 -42q-29 -40 -42 -76l29 -12q28 47 30 49q16 17 39 17q18 0 66 -25q42 -25 85 -25t83 42q29 32 42 76z" />
    <glyph glyph-name="Ograve" unicode="&#xd2;" horiz-adv-x="744" 
d="M607 611q-92 98 -235 98q-141 0 -234 -98q-99 -105 -99 -265t94 -260q95 -103 239 -103q140 0 233 98q100 100 100 265q0 162 -98 265zM535 120q-57 -93 -163 -93t-162 91q-53 87 -53 228q0 136 49 221q54 99 166 99q103 0 160 -88q55 -86 55 -232q0 -141 -52 -226z
M503 755l-128 126q-30 31 -56 31q-21 0 -33 -11t-12 -28q0 -19 10 -30.5t35 -24.5q12 -7 36.5 -18.5l64 -30.5l68.5 -33z" />
    <glyph glyph-name="Oacute" unicode="&#xd3;" horiz-adv-x="744" 
d="M607 611q-92 98 -235 98q-141 0 -234 -98q-99 -105 -99 -265t94 -260q95 -103 239 -103q140 0 233 98q100 100 100 265q0 162 -98 265zM535 120q-57 -93 -163 -93t-162 91q-53 87 -53 228q0 136 49 221q54 99 166 99q103 0 160 -88q55 -86 55 -232q0 -141 -52 -226z
M446 818q45 22 45 55q0 17 -13 28t-32 11q-28 0 -56 -31l-128 -126l15 -19l68.5 33l64 30.5t36.5 18.5z" />
    <glyph glyph-name="Ocircumflex" unicode="&#xd4;" horiz-adv-x="744" 
d="M607 611q-92 98 -235 98q-141 0 -234 -98q-99 -105 -99 -265t94 -260q95 -103 239 -103q140 0 233 98q100 100 100 265q0 162 -98 265zM535 120q-57 -93 -163 -93t-162 91q-53 87 -53 228q0 136 49 221q54 99 166 99q103 0 160 -88q55 -86 55 -232q0 -141 -52 -226z
M531 751l-116 141q-6 8 -9.5 11t-11.5 6t-21 3q-19 0 -27.5 -4.5t-17.5 -17.5l-115 -139l24 -15l134 103l136 -103z" />
    <glyph glyph-name="Otilde" unicode="&#xd5;" horiz-adv-x="744" 
d="M607 611q-92 98 -235 98q-141 0 -234 -98q-99 -105 -99 -265t94 -260q95 -103 239 -103q140 0 233 98q100 100 100 265q0 162 -98 265zM535 120q-57 -93 -163 -93t-162 91q-53 87 -53 228q0 136 49 221q54 99 166 99q103 0 160 -88q55 -86 55 -232q0 -141 -52 -226z
M559 896l-30 12q-18 -39 -26 -48q-12 -18 -50 -18q-9 0 -17.5 2.5t-13.5 5t-15.5 8.5l-15.5 9q-48 25 -84 25q-43 0 -80 -42q-29 -40 -42 -76l29 -12q28 47 30 49q16 17 39 17q18 0 66 -25q42 -25 85 -25t83 42q29 32 42 76z" />
    <glyph glyph-name="Odieresis" unicode="&#xd6;" horiz-adv-x="744" 
d="M607 611q-92 98 -235 98q-141 0 -234 -98q-99 -105 -99 -265t94 -260q95 -103 239 -103q140 0 233 98q100 100 100 265q0 162 -98 265zM535 120q-57 -93 -163 -93t-162 91q-53 87 -53 228q0 136 49 221q54 99 166 99q103 0 160 -88q55 -86 55 -232q0 -141 -52 -226z
M539 845q0 25 -16.5 42.5t-40.5 17.5t-41 -17.5t-17 -42.5t17 -42.5t41 -17.5t40.5 17.5t16.5 42.5zM320 845q0 25 -17 42.5t-41 17.5t-40.5 -17.5t-16.5 -42.5t16.5 -42.5t40.5 -17.5t41 17.5t17 42.5z" />
    <glyph glyph-name="multiply" unicode="&#xd7;" horiz-adv-x="643" 
d="M541 97l-178 176l178 177l-43 43l-177 -177l-176 177l-43 -43l177 -177l-177 -176l43 -44l176 178l177 -177z" />
    <glyph glyph-name="Oslash" unicode="&#xd8;" horiz-adv-x="744" 
d="M705 346q0 154 -93 258l77 91l-32 26l-74 -90q-88 79 -211 79q-140 0 -234 -99q-99 -105 -99 -265q0 -156 94 -258l-89 -105l32 -25l85 103q89 -78 211 -78q140 0 233 98q100 100 100 265zM536 574l-348 -420q-32 75 -32 192q0 138 49 221q57 100 167 100q108 0 164 -93z
M536 119q-57 -93 -164 -93t-164 93l349 419q31 -75 31 -192q0 -140 -52 -227z" />
    <glyph glyph-name="Ugrave" unicode="&#xd9;" horiz-adv-x="756" 
d="M749 658v35h-284v-35q22 -2 45 -8q31 -6 47 -19q31 -20 31 -133v-285q0 -65 -37 -113q-47 -62 -147 -62t-142 61q-30 44 -30 115v383q0 40 28 49q31 12 65 12v35h-289v-35q37 -2 63 -16q28 -16 28 -50v-409q0 -83 66 -139q73 -61 193 -61q92 0 163 50q87 60 87 170v301
q0 112 30 132q31 22 83 22zM499 755l-128 126q-30 31 -56 31q-21 0 -33 -11t-12 -28q0 -19 10 -30.5t35 -24.5q12 -7 36.5 -18.5l64 -30.5l68.5 -33z" />
    <glyph glyph-name="Uacute" unicode="&#xda;" horiz-adv-x="756" 
d="M749 658v35h-284v-35q22 -2 45 -8q31 -6 47 -19q31 -20 31 -133v-285q0 -65 -37 -113q-47 -62 -147 -62t-142 61q-30 44 -30 115v383q0 40 28 49q31 12 65 12v35h-289v-35q37 -2 63 -16q28 -16 28 -50v-409q0 -83 66 -139q73 -61 193 -61q92 0 163 50q87 60 87 170v301
q0 112 30 132q31 22 83 22zM469 818q45 22 45 55q0 17 -13 28t-32 11q-28 0 -56 -31l-128 -126l15 -19l68.5 33l64 30.5t36.5 18.5z" />
    <glyph glyph-name="Ucircumflex" unicode="&#xdb;" horiz-adv-x="756" 
d="M749 658v35h-284v-35q22 -2 45 -8q31 -6 47 -19q31 -20 31 -133v-285q0 -65 -37 -113q-47 -62 -147 -62t-142 61q-30 44 -30 115v383q0 40 28 49q31 12 65 12v35h-289v-35q37 -2 63 -16q28 -16 28 -50v-409q0 -83 66 -139q73 -61 193 -61q92 0 163 50q87 60 87 170v301
q0 112 30 132q31 22 83 22zM555 751l-116 141q-6 8 -9.5 11t-11.5 6t-21 3q-19 0 -27.5 -4.5t-17.5 -17.5l-115 -139l24 -15l134 103l136 -103z" />
    <glyph glyph-name="Udieresis" unicode="&#xdc;" horiz-adv-x="756" 
d="M749 658v35h-284v-35q22 -2 45 -8q31 -6 47 -19q31 -20 31 -133v-285q0 -65 -37 -113q-47 -62 -147 -62t-142 61q-30 44 -30 115v383q0 40 28 49q31 12 65 12v35h-289v-35q37 -2 63 -16q28 -16 28 -50v-409q0 -83 66 -139q73 -61 193 -61q92 0 163 50q87 60 87 170v301
q0 112 30 132q31 22 83 22zM565 845q0 25 -16.5 42.5t-40.5 17.5t-41 -17.5t-17 -42.5t17 -42.5t41 -17.5t40.5 17.5t16.5 42.5zM346 845q0 25 -17 42.5t-41 17.5t-40.5 -17.5t-16.5 -42.5t16.5 -42.5t40.5 -17.5t41 17.5t17 42.5z" />
    <glyph glyph-name="Yacute" unicode="&#xdd;" horiz-adv-x="615" 
d="M642 658v35h-241v-35q38 -2 61 -8q31 -8 31 -28q0 -23 -158 -276l-62 113l-47 86l-32 61q-11 24 -11 29q0 22 91 23v35h-295v-35q32 -2 57 -16q32 -23 57 -67l62 -113l65 -122q32 -66 32 -75v-168q0 -38 -30 -52q-9 -4 -39 -7q-26 -1 -40 -3v-35h324v35q-40 0 -79 15
q-32 15 -32 52v132q0 36 6 55q5 17 24 50l81 140q30 54 70 109q18 25 26 33t26 19q8 6 26 12t27 6zM425 818q45 22 45 55q0 17 -13 28t-32 11q-28 0 -56 -31l-128 -126l15 -19l68.5 33l64 30.5t36.5 18.5z" />
    <glyph glyph-name="Thorn" unicode="&#xde;" horiz-adv-x="614" 
d="M581 370q0 83 -61 132q-60 51 -152 51h-123v45q0 39 28 48q31 12 65 12v35h-291v-35q29 -2 66 -17q28 -11 28 -48v-499q0 -37 -28 -50q-18 -6 -65 -9v-35h296v35q-44 0 -71 9q-28 11 -28 50v64h82q104 0 175 50q79 54 79 162zM433 258q-41 -57 -135 -57h-53v311h68
q78 0 116 -49q30 -38 30 -109q0 -55 -26 -96z" />
    <glyph glyph-name="germandbls" unicode="&#xdf;" horiz-adv-x="548" 
d="M453 394q-46 46 -110 61v4q48 6 84 40q47 42 47 109q0 74 -53 114q-46 35 -117 35q-88 0 -147 -63q-39 -42 -50 -90q-10 -44 -10 -113v-407q0 -38 -24 -45q-14 -5 -44 -7v-32h159v518q0 202 111 202q42 0 66 -30t24 -85q0 -62 -37 -99q-33 -29 -76 -29h-18v-42h10
q66 0 103 -51.5t37 -137.5q0 -93 -29 -150q-28 -61 -97 -61q-24 0 -43 5v-40q25 -5 59 -5q90 0 151 69q61 68 61 179q0 91 -57 151z" />
    <glyph glyph-name="agrave" unicode="&#xe0;" horiz-adv-x="504" 
d="M491 9v31q-46 0 -55 5q-27 16 -27 50q0 42 1.5 118t1.5 123q0 92 -51 129q-40 30 -127 30q-64 0 -114 -33q-58 -35 -58 -79q0 -24 12.5 -40t35.5 -16q26 0 42 13.5t16 31.5q0 12 -4.5 35t-4.5 29q23 23 69 23q54 0 78 -44q14 -29 14 -59v-48q-25 -14 -91 -36l-89 -30
q-48 -19 -70 -45q-31 -36 -31 -89q0 -54 35 -87t89 -33q90 0 156 72h3q12 -70 90 -70q30 0 79 19zM321 267l-3 -169q-43 -56 -106 -56q-34 0 -54.5 20t-20.5 58q0 58 53 93q39 26 131 54zM339 558l-99 150q-26 43 -62 43q-17 0 -28.5 -11.5t-11.5 -26.5q0 -19 6.5 -28.5
t27.5 -26.5l32.5 -26l55 -43l60.5 -47z" />
    <glyph glyph-name="aacute" unicode="&#xe1;" horiz-adv-x="504" 
d="M491 9v31q-46 0 -55 5q-27 16 -27 50q0 42 1.5 118t1.5 123q0 92 -51 129q-40 30 -127 30q-64 0 -114 -33q-58 -35 -58 -79q0 -24 12.5 -40t35.5 -16q26 0 42 13.5t16 31.5q0 12 -4.5 35t-4.5 29q23 23 69 23q54 0 78 -44q14 -29 14 -59v-48q-25 -14 -91 -36l-89 -30
q-48 -19 -70 -45q-31 -36 -31 -89q0 -54 35 -87t89 -33q90 0 156 72h3q12 -70 90 -70q30 0 79 19zM321 267l-3 -169q-43 -56 -106 -56q-34 0 -54.5 20t-20.5 58q0 58 53 93q39 26 131 54zM361 713q0 15 -11.5 26.5t-28.5 11.5q-36 0 -62 -43l-38 -59l-61 -91l19 -16l79.5 62
l68.5 54q34 25 34 55z" />
    <glyph glyph-name="acircumflex" unicode="&#xe2;" horiz-adv-x="504" 
d="M491 9v31q-46 0 -55 5q-27 16 -27 50q0 42 1.5 118t1.5 123q0 92 -51 129q-40 30 -127 30q-64 0 -114 -33q-58 -35 -58 -79q0 -24 12.5 -40t35.5 -16q26 0 42 13.5t16 31.5q0 12 -4.5 35t-4.5 29q23 23 69 23q54 0 78 -44q14 -29 14 -59v-48q-25 -14 -91 -36l-89 -30
q-48 -19 -70 -45q-31 -36 -31 -89q0 -54 35 -87t89 -33q90 0 156 72h3q12 -70 90 -70q30 0 79 19zM321 267l-3 -169q-43 -56 -106 -56q-34 0 -54.5 20t-20.5 58q0 58 53 93q39 26 131 54zM399 565l-117 171q-8 11 -15 15.5t-26 4.5q-20 0 -27.5 -4.5t-16.5 -17.5l-116 -169
l24 -16l134 133l136 -133z" />
    <glyph glyph-name="atilde" unicode="&#xe3;" horiz-adv-x="504" 
d="M491 9v31q-46 0 -55 5q-27 16 -27 50q0 42 1.5 118t1.5 123q0 92 -51 129q-40 30 -127 30q-64 0 -114 -33q-58 -35 -58 -79q0 -24 12.5 -40t35.5 -16q26 0 42 13.5t16 31.5q0 12 -4.5 35t-4.5 29q23 23 69 23q54 0 78 -44q14 -29 14 -59v-48q-25 -14 -91 -36l-89 -30
q-48 -19 -70 -45q-31 -36 -31 -89q0 -54 35 -87t89 -33q90 0 156 72h3q12 -70 90 -70q30 0 79 19zM321 267l-3 -169q-43 -56 -106 -56q-34 0 -54.5 20t-20.5 58q0 58 53 93q39 26 131 54zM434 716l-30 12q-18 -39 -26 -48q-12 -18 -50 -18q-9 0 -17.5 2.5t-13.5 5t-15.5 8.5
l-15.5 9q-48 25 -84 25q-43 0 -80 -42q-29 -40 -42 -76l29 -12q28 47 30 49q16 17 39 17q18 0 66 -25q42 -25 85 -25t83 42q29 32 42 76z" />
    <glyph glyph-name="adieresis" unicode="&#xe4;" horiz-adv-x="504" 
d="M491 9v31q-46 0 -55 5q-27 16 -27 50q0 42 1.5 118t1.5 123q0 92 -51 129q-40 30 -127 30q-64 0 -114 -33q-58 -35 -58 -79q0 -24 12.5 -40t35.5 -16q26 0 42 13.5t16 31.5q0 12 -4.5 35t-4.5 29q23 23 69 23q54 0 78 -44q14 -29 14 -59v-48q-25 -14 -91 -36l-89 -30
q-48 -19 -70 -45q-31 -36 -31 -89q0 -54 35 -87t89 -33q90 0 156 72h3q12 -70 90 -70q30 0 79 19zM321 267l-3 -169q-43 -56 -106 -56q-34 0 -54.5 20t-20.5 58q0 58 53 93q39 26 131 54zM404 666q0 25 -17 42.5t-41 17.5t-41 -17.5t-17 -42.5t17 -42.5t41 -17.5t41 17.5
t17 42.5zM194 666q0 25 -17 42.5t-41 17.5t-41 -17.5t-17 -42.5t17 -42.5t41 -17.5t41 17.5t17 42.5z" />
    <glyph glyph-name="aring" unicode="&#xe5;" horiz-adv-x="504" 
d="M491 9v31q-46 0 -55 5q-27 16 -27 50q0 42 1.5 118t1.5 123q0 92 -51 129q-40 30 -127 30q-64 0 -114 -33q-58 -35 -58 -79q0 -24 12.5 -40t35.5 -16q26 0 42 13.5t16 31.5q0 12 -4.5 35t-4.5 29q23 23 69 23q54 0 78 -44q14 -29 14 -59v-48q-25 -14 -91 -36l-89 -30
q-48 -19 -70 -45q-31 -36 -31 -89q0 -54 35 -87t89 -33q90 0 156 72h3q12 -70 90 -70q30 0 79 19zM321 267l-3 -169q-43 -56 -106 -56q-34 0 -54.5 20t-20.5 58q0 58 53 93q39 26 131 54zM367 653q0 48 -35.5 78t-90.5 30q-54 0 -90 -30.5t-36 -77.5q0 -49 34.5 -79
t91.5 -30t91.5 30.5t34.5 78.5zM305 653q0 -36 -17 -57t-47 -21t-47 21.5t-17 56.5q0 36 17 56.5t47 20.5q31 0 47.5 -21.5t16.5 -55.5z" />
    <glyph glyph-name="ae" unicode="&#xe6;" horiz-adv-x="737" 
d="M717 114l-34 21q-22 -47 -52.5 -70.5t-78.5 -23.5q-149 0 -149 227h302v28q0 85 -43 140q-49 59 -143 59q-81 0 -137 -59q-40 59 -152 59q-64 0 -112 -33q-56 -36 -56 -79q0 -24 12 -40t35 -16q26 0 42 13.5t16 31.5q0 12 -4.5 35t-4.5 29q23 23 71 23q50 0 70 -44
q14 -28 14 -59v-52q-63 -20 -70 -22q-42 -12 -105 -37q-47 -21 -68 -45q-30 -36 -30 -93q0 -54 34.5 -87t91.5 -33t99 21.5t80 70.5h3q64 -92 181 -92q60 0 109.5 33.5t78.5 93.5zM608 308h-205q0 62 30 106q32 44 80 44q56 0 79 -51q16 -33 16 -99zM314 95
q-44 -53 -106 -53q-33 0 -52 20t-19 59q0 58 52 95q43 29 125 46v-167z" />
    <glyph glyph-name="ccedilla" unicode="&#xe7;" horiz-adv-x="454" 
d="M224 -11v-90q34 0 54 -6q27 -8 27 -31q0 -28 -41 -39q-23 -5 -84 -5v-35q86 0 136 18q59 24 59 78q0 39 -37 58q-30 15 -75 15v35q55 2 106 35.5t83 89.5l-32 21q-28 -47 -60 -69.5t-78 -22.5q-66 0 -106 57q-40 58 -40 149q0 110 40 165q35 46 86 46q49 0 64 -25
q0 -4 -6.5 -33t-6.5 -46q0 -19 16.5 -33t44.5 -14q25 0 37.5 17.5t12.5 44.5q0 57 -44 91.5t-116 34.5q-103 0 -167 -77q-62 -74 -62 -175q0 -108 50 -175.5t139 -78.5z" />
    <glyph glyph-name="egrave" unicode="&#xe8;" horiz-adv-x="483" 
d="M463 113l-34 21q-30 -51 -61 -72t-75 -21q-82 0 -123 61q-38 55 -38 154h319v32q0 90 -44 145q-51 62 -152 62q-100 0 -161 -77q-59 -73 -59 -173q0 -109 56 -182q63 -76 174 -76q64 0 115.5 33.5t82.5 92.5zM355 297h-223q3 75 36.5 118t85.5 43q55 0 81 -50
q20 -37 20 -111zM340 558l-99 150q-26 43 -62 43q-17 0 -28.5 -11.5t-11.5 -26.5q0 -19 6.5 -28.5t27.5 -26.5l32.5 -26l55 -43l60.5 -47z" />
    <glyph glyph-name="eacute" unicode="&#xe9;" horiz-adv-x="483" 
d="M463 113l-34 21q-30 -51 -61 -72t-75 -21q-82 0 -123 61q-38 55 -38 154h319v32q0 90 -44 145q-51 62 -152 62q-100 0 -161 -77q-59 -73 -59 -173q0 -109 56 -182q63 -76 174 -76q64 0 115.5 33.5t82.5 92.5zM355 297h-223q3 75 36.5 118t85.5 43q55 0 81 -50
q20 -37 20 -111zM373 713q0 15 -11.5 26.5t-28.5 11.5q-36 0 -62 -43l-38 -59l-61 -91l19 -16l79.5 62l68.5 54q34 25 34 55z" />
    <glyph glyph-name="ecircumflex" unicode="&#xea;" horiz-adv-x="483" 
d="M463 113l-34 21q-30 -51 -61 -72t-75 -21q-82 0 -123 61q-38 55 -38 154h319v32q0 90 -44 145q-51 62 -152 62q-100 0 -161 -77q-59 -73 -59 -173q0 -109 56 -182q63 -76 174 -76q64 0 115.5 33.5t82.5 92.5zM355 297h-223q3 75 36.5 118t85.5 43q55 0 81 -50
q20 -37 20 -111zM414 562l-117 171q-8 11 -15 15.5t-26 4.5q-20 0 -27.5 -4.5t-16.5 -17.5l-116 -169l24 -16l134 133l136 -133z" />
    <glyph glyph-name="edieresis" unicode="&#xeb;" horiz-adv-x="483" 
d="M463 113l-34 21q-30 -51 -61 -72t-75 -21q-82 0 -123 61q-38 55 -38 154h319v32q0 90 -44 145q-51 62 -152 62q-100 0 -161 -77q-59 -73 -59 -173q0 -109 56 -182q63 -76 174 -76q64 0 115.5 33.5t82.5 92.5zM355 297h-223q3 75 36.5 118t85.5 43q55 0 81 -50
q20 -37 20 -111zM421 666q0 25 -17 42.5t-41 17.5t-41 -17.5t-17 -42.5t17 -42.5t41 -17.5t41 17.5t17 42.5zM211 666q0 25 -17 42.5t-41 17.5t-41 -17.5t-17 -42.5t17 -42.5t41 -17.5t41 17.5t17 42.5z" />
    <glyph glyph-name="igrave" unicode="&#xec;" horiz-adv-x="293" 
d="M269 0v32q-13 1 -44 11q-27 10 -27 45v392l-7 7l-170 -10v-32q39 -2 59 -15q27 -19 27 -51v-297q0 -37 -27 -44q-12 -4 -44 -6v-32h233zM221 558l-99 150q-26 43 -62 43q-17 0 -28.5 -11.5t-11.5 -26.5q0 -19 6.5 -28.5t27.5 -26.5l32.5 -26l55 -43l60.5 -47z" />
    <glyph glyph-name="iacute" unicode="&#xed;" horiz-adv-x="293" 
d="M269 0v32q-13 1 -44 11q-27 10 -27 45v392l-7 7l-170 -10v-32q39 -2 59 -15q27 -19 27 -51v-297q0 -37 -27 -44q-12 -4 -44 -6v-32h233zM250 713q0 15 -11.5 26.5t-28.5 11.5q-36 0 -62 -43l-38 -59l-61 -91l19 -16l79.5 62l68.5 54q34 25 34 55z" />
    <glyph glyph-name="icircumflex" unicode="&#xee;" horiz-adv-x="293" 
d="M269 0v32q-13 1 -44 11q-27 10 -27 45v392l-7 7l-170 -10v-32q39 -2 59 -15q27 -19 27 -51v-297q0 -37 -27 -44q-12 -4 -44 -6v-32h233zM273 562l-99 169q-14 22 -41 22q-31 0 -44 -24l-99 -167l24 -15l117 132l119 -132z" />
    <glyph glyph-name="idieresis" unicode="&#xef;" horiz-adv-x="293" 
d="M269 0v32q-13 1 -44 11q-27 10 -27 45v392l-7 7l-170 -10v-32q39 -2 59 -15q27 -19 27 -51v-297q0 -37 -27 -44q-12 -4 -44 -6v-32h233zM276 666q0 25 -16 42.5t-40 17.5t-40 -17.5t-16 -42.5t16 -42.5t40 -17.5t40 17.5t16 42.5zM105 666q0 25 -16 42.5t-40 17.5
t-40 -17.5t-16 -42.5t16 -42.5t40 -17.5t40 17.5t16 42.5z" />
    <glyph glyph-name="eth" unicode="&#xf0;" horiz-adv-x="532" 
d="M495 298q0 212 -135 358l93 53l-25 39l-99 -61q-40 40 -104 73l-25 -28q54 -35 81 -71l-111 -64l24 -38l113 67q74 -106 85 -212l-4 -1q-17 28 -53 48t-79 20q-98 0 -160 -68t-62 -176q0 -115 70 -187q65 -65 156 -65q111 0 172 85q63 86 63 228zM364 93q-31 -71 -99 -71
q-62 0 -96 56t-34 166q0 86 28 135q32 63 103 63q59 0 93 -52.5t34 -139.5q0 -98 -29 -157z" />
    <glyph glyph-name="ntilde" unicode="&#xf1;" horiz-adv-x="591" 
d="M567 0v32q-24 1 -44 10q-26 11 -26 44v250q0 74 -34.5 116.5t-101.5 42.5q-57 0 -99 -28q-16 -10 -63 -54h-2v67l-7 7l-160 -10v-32q31 -2 49 -12q27 -19 27 -54v-297q0 -37 -27 -44q-11 -4 -44 -6v-32h236v32q-30 2 -47 11q-27 11 -27 44v277q11 23 39 45q43 28 86 28
q35 0 59 -29t24 -78v-248q0 -37 -27 -44q-11 -4 -47 -6v-32h236zM482 716l-30 12q-18 -39 -26 -48q-12 -18 -50 -18q-9 0 -17.5 2.5t-13.5 5t-15.5 8.5l-15.5 9q-48 25 -84 25q-43 0 -80 -42q-29 -40 -42 -76l29 -12q28 47 30 49q16 17 39 17q18 0 66 -25q42 -25 85 -25
t83 42q29 32 42 76z" />
    <glyph glyph-name="ograve" unicode="&#xf2;" horiz-adv-x="539" 
d="M504 246q0 114 -66 181q-65 68 -166 68q-106 0 -172 -72q-66 -71 -66 -184q0 -114 70 -186q66 -68 161 -68q112 0 177 77q62 73 62 184zM403 245q0 -104 -35.5 -163.5t-96.5 -59.5q-66 0 -104 67q-32 60 -32 158q0 87 29 142q34 69 107 69q68 0 103 -67q29 -54 29 -146z
M384 558l-99 150q-26 43 -62 43q-17 0 -28.5 -11.5t-11.5 -26.5q0 -19 6.5 -28.5t27.5 -26.5l32.5 -26l55 -43l60.5 -47z" />
    <glyph glyph-name="oacute" unicode="&#xf3;" horiz-adv-x="539" 
d="M504 246q0 114 -66 181q-65 68 -166 68q-106 0 -172 -72q-66 -71 -66 -184q0 -114 70 -186q66 -68 161 -68q112 0 177 77q62 73 62 184zM403 245q0 -104 -35.5 -163.5t-96.5 -59.5q-66 0 -104 67q-32 60 -32 158q0 87 29 142q34 69 107 69q68 0 103 -67q29 -54 29 -146z
M363 713q0 15 -11.5 26.5t-28.5 11.5q-36 0 -62 -43l-38 -59l-61 -91l19 -16l79.5 62l68.5 54q34 25 34 55z" />
    <glyph glyph-name="ocircumflex" unicode="&#xf4;" horiz-adv-x="539" 
d="M504 246q0 114 -66 181q-65 68 -166 68q-106 0 -172 -72q-66 -71 -66 -184q0 -114 70 -186q66 -68 161 -68q112 0 177 77q62 73 62 184zM403 245q0 -104 -35.5 -163.5t-96.5 -59.5q-66 0 -104 67q-32 60 -32 158q0 87 29 142q34 69 107 69q68 0 103 -67q29 -54 29 -146z
M432 562l-117 171q-8 11 -15 15.5t-26 4.5q-20 0 -27.5 -4.5t-16.5 -17.5l-116 -169l24 -16l134 133l136 -133z" />
    <glyph glyph-name="otilde" unicode="&#xf5;" horiz-adv-x="539" 
d="M504 246q0 114 -66 181q-65 68 -166 68q-106 0 -172 -72q-66 -71 -66 -184q0 -114 70 -186q66 -68 161 -68q112 0 177 77q62 73 62 184zM403 245q0 -104 -35.5 -163.5t-96.5 -59.5q-66 0 -104 67q-32 60 -32 158q0 87 29 142q34 69 107 69q68 0 103 -67q29 -54 29 -146z
M460 716l-30 12q-18 -39 -26 -48q-12 -18 -50 -18q-9 0 -17.5 2.5t-13.5 5t-15.5 8.5l-15.5 9q-48 25 -84 25q-43 0 -80 -42q-29 -40 -42 -76l29 -12q28 47 30 49q16 17 39 17q18 0 66 -25q42 -25 85 -25t83 42q29 32 42 76z" />
    <glyph glyph-name="odieresis" unicode="&#xf6;" horiz-adv-x="539" 
d="M504 246q0 114 -66 181q-65 68 -166 68q-106 0 -172 -72q-66 -71 -66 -184q0 -114 70 -186q66 -68 161 -68q112 0 177 77q62 73 62 184zM403 245q0 -104 -35.5 -163.5t-96.5 -59.5q-66 0 -104 67q-32 60 -32 158q0 87 29 142q34 69 107 69q68 0 103 -67q29 -54 29 -146z
M436 666q0 25 -17 42.5t-41 17.5t-41 -17.5t-17 -42.5t17 -42.5t41 -17.5t41 17.5t17 42.5zM226 666q0 25 -17 42.5t-41 17.5t-41 -17.5t-17 -42.5t17 -42.5t41 -17.5t41 17.5t17 42.5z" />
    <glyph glyph-name="divide" unicode="&#xf7;" horiz-adv-x="643" 
d="M385 472q0 26 -18.5 44t-44.5 18t-44.5 -18t-18.5 -44t18.5 -44.5t44.5 -18.5t44.5 18.5t18.5 44.5zM573 243v61h-503v-61h503zM385 75q0 26 -18.5 44.5t-44.5 18.5t-44.5 -18.5t-18.5 -44.5t18.5 -44t44.5 -18t44.5 18t18.5 44z" />
    <glyph glyph-name="oslash" unicode="&#xf8;" horiz-adv-x="539" 
d="M504 246q0 107 -66 178l58 71l-29 22l-54 -69q-59 47 -141 47q-106 0 -172 -72q-66 -71 -66 -184q0 -105 66 -178l-65 -80l28 -21q1 2 21 27l41 50q63 -52 140 -52q112 0 177 77q62 73 62 184zM373 398l-223 -277q-17 56 -17 126q0 87 29 142q36 69 109 69q65 0 102 -60z
M373 88q-38 -66 -102 -66q-68 0 -105 65l223 278q16 -51 16 -120q0 -96 -32 -157z" />
    <glyph glyph-name="ugrave" unicode="&#xf9;" horiz-adv-x="575" 
d="M551 9v32q-35 0 -48 9q-25 17 -25 48v382l-8 7l-175 -11v-32q54 -2 65 -9q26 -18 26 -50v-273q-13 -24 -38 -43q-37 -28 -83 -28q-35 0 -57.5 27.5t-22.5 77.5v334l-7 7l-161 -11v-32q32 -2 50 -12q26 -18 26 -51v-230q0 -80 33.5 -121.5t97.5 -41.5q59 0 100 27
q28 17 60 51h3v-61l8 -7zM376 558l-99 150q-26 43 -62 43q-17 0 -28.5 -11.5t-11.5 -26.5q0 -19 6.5 -28.5t27.5 -26.5l32.5 -26l55 -43l60.5 -47z" />
    <glyph glyph-name="uacute" unicode="&#xfa;" horiz-adv-x="575" 
d="M551 9v32q-35 0 -48 9q-25 17 -25 48v382l-8 7l-175 -11v-32q54 -2 65 -9q26 -18 26 -50v-273q-13 -24 -38 -43q-37 -28 -83 -28q-35 0 -57.5 27.5t-22.5 77.5v334l-7 7l-161 -11v-32q32 -2 50 -12q26 -18 26 -51v-230q0 -80 33.5 -121.5t97.5 -41.5q59 0 100 27
q28 17 60 51h3v-61l8 -7zM395 713q0 15 -11.5 26.5t-28.5 11.5q-36 0 -62 -43l-38 -59l-61 -91l19 -16l79.5 62l68.5 54q34 25 34 55z" />
    <glyph glyph-name="ucircumflex" unicode="&#xfb;" horiz-adv-x="575" 
d="M551 9v32q-35 0 -48 9q-25 17 -25 48v382l-8 7l-175 -11v-32q54 -2 65 -9q26 -18 26 -50v-273q-13 -24 -38 -43q-37 -28 -83 -28q-35 0 -57.5 27.5t-22.5 77.5v334l-7 7l-161 -11v-32q32 -2 50 -12q26 -18 26 -51v-230q0 -80 33.5 -121.5t97.5 -41.5q59 0 100 27
q28 17 60 51h3v-61l8 -7zM439 562l-117 171q-8 11 -15 15.5t-26 4.5q-20 0 -27.5 -4.5t-16.5 -17.5l-116 -169l24 -16l134 133l136 -133z" />
    <glyph glyph-name="udieresis" unicode="&#xfc;" horiz-adv-x="575" 
d="M551 9v32q-35 0 -48 9q-25 17 -25 48v382l-8 7l-175 -11v-32q54 -2 65 -9q26 -18 26 -50v-273q-13 -24 -38 -43q-37 -28 -83 -28q-35 0 -57.5 27.5t-22.5 77.5v334l-7 7l-161 -11v-32q32 -2 50 -12q26 -18 26 -51v-230q0 -80 33.5 -121.5t97.5 -41.5q59 0 100 27
q28 17 60 51h3v-61l8 -7zM443 666q0 25 -17 42.5t-41 17.5t-41 -17.5t-17 -42.5t17 -42.5t41 -17.5t41 17.5t17 42.5zM233 666q0 25 -17 42.5t-41 17.5t-41 -17.5t-17 -42.5t17 -42.5t41 -17.5t41 17.5t17 42.5z" />
    <glyph glyph-name="yacute" unicode="&#xfd;" horiz-adv-x="492" 
d="M-1 -157q0 -25 22 -42.5t59 -17.5q40 0 79 35q46 43 102 167l68 163l104 246q10 24 33 39t41 18v30h-179v-31q17 -1 42 -13q23 -11 23 -24q0 -10 -17 -54q-32 -84 -98 -240q-10 27 -59 146l-57 139q-7 19 -7 24q0 8 20 13q21 6 35 6v34h-219v-32q58 -8 75 -51l78 -189
l85 -207q-18 -45 -50 -97q-33 -56 -58 -69q-23 36 -29 41q-21 21 -47 21q-20 0 -33 -15.5t-13 -39.5zM371 713q0 15 -11.5 26.5t-28.5 11.5q-36 0 -62 -43l-38 -59l-61 -91l19 -16l79.5 62l68.5 54q34 25 34 55z" />
    <glyph glyph-name="thorn" unicode="&#xfe;" horiz-adv-x="559" 
d="M463 424q-59 71 -147 71q-36 0 -74 -19.5t-63 -49.5l-3 2v321l-7 7l-178 -11v-32q54 -3 67 -12q21 -15 27 -58v-774q0 -36 -26 -46q-16 -5 -55 -7v-33h269v33q-30 0 -69 13q-28 10 -28 46v145h4q45 -33 116 -33q90 0 158 70q69 71 69 185q0 113 -60 182zM421 238
q0 -104 -38 -160q-36 -55 -95 -55q-41 0 -76 27q-29 27 -36 52v285q44 53 105 53q72 0 108 -63q32 -51 32 -139z" />
    <glyph glyph-name="ydieresis" unicode="&#xff;" horiz-adv-x="492" 
d="M-1 -157q0 -25 22 -42.5t59 -17.5q40 0 79 35q46 43 102 167l68 163l104 246q10 24 33 39t41 18v30h-179v-31q17 -1 42 -13q23 -11 23 -24q0 -10 -17 -54q-32 -84 -98 -240q-10 27 -59 146l-57 139q-7 19 -7 24q0 8 20 13q21 6 35 6v34h-219v-32q58 -8 75 -51l78 -189
l85 -207q-18 -45 -50 -97q-33 -56 -58 -69q-23 36 -29 41q-21 21 -47 21q-20 0 -33 -15.5t-13 -39.5zM428 666q0 25 -17 42.5t-41 17.5t-41 -17.5t-17 -42.5t17 -42.5t41 -17.5t41 17.5t17 42.5zM218 666q0 25 -17 42.5t-41 17.5t-41 -17.5t-17 -42.5t17 -42.5t41 -17.5
t41 17.5t17 42.5z" />
    <glyph glyph-name="Amacron" unicode="&#x100;" horiz-adv-x="671" 
d="M694 0v35q-32 0 -60 16q-30 22 -42 54l-231 598h-39l-113 -290l-115 -293q-17 -44 -51 -67q-23 -16 -63 -18v-35h261v35q-100 6 -100 43q0 16 11 55q16 51 37 107h243l58 -156q4 -7 4 -22q0 -10 -25 -17.5t-64 -9.5v-35h289zM415 283h-208l103 269zM509 803v63h-334v-63
h334z" />
    <glyph glyph-name="amacron" unicode="&#x101;" horiz-adv-x="504" 
d="M491 9v31q-46 0 -55 5q-27 16 -27 50q0 42 1.5 118t1.5 123q0 92 -51 129q-40 30 -127 30q-64 0 -114 -33q-58 -35 -58 -79q0 -24 12.5 -40t35.5 -16q26 0 42 13.5t16 31.5q0 12 -4.5 35t-4.5 29q23 23 69 23q54 0 78 -44q14 -29 14 -59v-48q-25 -14 -91 -36l-89 -30
q-48 -19 -70 -45q-31 -36 -31 -89q0 -54 35 -87t89 -33q90 0 156 72h3q12 -70 90 -70q30 0 79 19zM321 267l-3 -169q-43 -56 -106 -56q-34 0 -54.5 20t-20.5 58q0 58 53 93q39 26 131 54zM413 630v63h-334v-63h334z" />
    <glyph glyph-name="Abreve" unicode="&#x102;" horiz-adv-x="671" 
d="M694 0v35q-32 0 -60 16q-30 22 -42 54l-231 598h-39l-113 -290l-115 -293q-17 -44 -51 -67q-23 -16 -63 -18v-35h261v35q-100 6 -100 43q0 16 11 55q16 51 37 107h243l58 -156q4 -7 4 -22q0 -10 -25 -17.5t-64 -9.5v-35h289zM415 283h-208l103 269zM496 904l-27 8
q-15 -47 -44.5 -70t-83.5 -23t-83.5 23t-44.5 70l-27 -8q12 -77 51.5 -117t103.5 -40q130 0 155 157z" />
    <glyph glyph-name="abreve" unicode="&#x103;" horiz-adv-x="504" 
d="M491 9v31q-46 0 -55 5q-27 16 -27 50q0 42 1.5 118t1.5 123q0 92 -51 129q-40 30 -127 30q-64 0 -114 -33q-58 -35 -58 -79q0 -24 12.5 -40t35.5 -16q26 0 42 13.5t16 31.5q0 12 -4.5 35t-4.5 29q23 23 69 23q54 0 78 -44q14 -29 14 -59v-48q-25 -14 -91 -36l-89 -30
q-48 -19 -70 -45q-31 -36 -31 -89q0 -54 35 -87t89 -33q90 0 156 72h3q12 -70 90 -70q30 0 79 19zM321 267l-3 -169q-43 -56 -106 -56q-34 0 -54.5 20t-20.5 58q0 58 53 93q39 26 131 54zM394 730l-27 6q-15 -55 -41 -81q-29 -31 -85 -31q-54 0 -86 32q-24 25 -40 80l-27 -6
q25 -180 153 -180q125 0 153 180z" />
    <glyph glyph-name="Aogonek" unicode="&#x104;" horiz-adv-x="671" 
d="M544 0q-85 -60 -85 -122q0 -45 34 -70t96 -25h57v35q-61 0 -88 21q-22 19 -22 55q0 64 46 106h112v35q-32 0 -60 16q-30 22 -42 54l-231 598h-39l-113 -290l-115 -293q-17 -44 -51 -67q-23 -16 -63 -18v-35h261v35q-100 6 -100 43q0 16 11 55q16 51 37 107h243l58 -156
q4 -7 4 -22q0 -10 -25 -17.5t-64 -9.5v-35h139zM415 283h-208l103 269z" />
    <glyph glyph-name="aogonek" unicode="&#x105;" horiz-adv-x="504" 
d="M268 -122q0 -45 34 -70t96 -25h56v35q-61 0 -87 21q-22 19 -22 55q0 57 39 99q24 -3 28 -3q30 0 79 19v31q-46 0 -55 5q-27 16 -27 50q0 42 1.5 118t1.5 123q0 92 -51 129q-40 30 -127 30q-64 0 -114 -33q-58 -35 -58 -79q0 -24 12.5 -40t35.5 -16q26 0 42 13.5t16 31.5
q0 12 -4.5 35t-4.5 29q23 23 69 23q54 0 78 -44q14 -29 14 -59v-48q-25 -14 -91 -36l-89 -30q-48 -19 -70 -45q-31 -36 -31 -89q0 -54 35 -87t89 -33q90 0 156 72h3q7 -39 35 -57q-89 -61 -89 -125zM321 267l-3 -169q-43 -56 -106 -56q-34 0 -54.5 20t-20.5 58q0 58 53 93
q39 26 131 54z" />
    <glyph glyph-name="Cacute" unicode="&#x106;" horiz-adv-x="642" 
d="M353 -16q99 0 167 45.5t109 145.5l-36 18q-24 -65 -73 -109q-55 -45 -131 -45q-103 0 -169 88q-65 85 -65 220q0 152 60 236t159 84q79 0 129 -71q44 -62 60 -150h41l-5 247h-39l-20 -33q-79 48 -172 48q-141 0 -234 -101q-96 -104 -96 -267q0 -159 95 -261
q92 -95 220 -95zM429 818q45 22 45 55q0 17 -13 28t-32 11q-28 0 -56 -31l-128 -126l15 -19l68.5 33l64 30.5t36.5 18.5z" />
    <glyph glyph-name="cacute" unicode="&#x107;" horiz-adv-x="454" 
d="M258 -13q56 0 108.5 34t85.5 91l-32 21q-28 -47 -60 -69.5t-78 -22.5q-66 0 -106 57q-40 58 -40 149q0 110 40 165q35 46 86 46q49 0 64 -25q0 -4 -6.5 -33t-6.5 -46q0 -19 16.5 -33t44.5 -14q25 0 37.5 17.5t12.5 44.5q0 57 -44 91.5t-116 34.5q-103 0 -167 -77
q-62 -74 -62 -175q0 -118 59.5 -187t163.5 -69zM352 713q0 15 -11.5 26.5t-28.5 11.5q-36 0 -62 -43l-38 -59l-61 -91l19 -16l79.5 62l68.5 54q34 25 34 55z" />
    <glyph glyph-name="Ccircumflex" unicode="&#x108;" horiz-adv-x="642" 
d="M353 -16q99 0 167 45.5t109 145.5l-36 18q-24 -65 -73 -109q-55 -45 -131 -45q-103 0 -169 88q-65 85 -65 220q0 152 60 236t159 84q79 0 129 -71q44 -62 60 -150h41l-5 247h-39l-20 -33q-79 48 -172 48q-141 0 -234 -101q-96 -104 -96 -267q0 -159 95 -261
q92 -95 220 -95zM519 751l-116 141q-6 8 -9.5 11t-11.5 6t-21 3q-19 0 -27.5 -4.5t-17.5 -17.5l-115 -139l24 -15l134 103l136 -103z" />
    <glyph glyph-name="ccircumflex" unicode="&#x109;" horiz-adv-x="454" 
d="M258 -13q56 0 108.5 34t85.5 91l-32 21q-28 -47 -60 -69.5t-78 -22.5q-66 0 -106 57q-40 58 -40 149q0 110 40 165q35 46 86 46q49 0 64 -25q0 -4 -6.5 -33t-6.5 -46q0 -19 16.5 -33t44.5 -14q25 0 37.5 17.5t12.5 44.5q0 57 -44 91.5t-116 34.5q-103 0 -167 -77
q-62 -74 -62 -175q0 -118 59.5 -187t163.5 -69zM414 562l-117 171q-8 11 -15 15.5t-26 4.5q-20 0 -27.5 -4.5t-16.5 -17.5l-116 -169l24 -16l134 133l136 -133z" />
    <glyph glyph-name="Cdotaccent" unicode="&#x10a;" horiz-adv-x="642" 
d="M353 -16q99 0 167 45.5t109 145.5l-36 18q-24 -65 -73 -109q-55 -45 -131 -45q-103 0 -169 88q-65 85 -65 220q0 152 60 236t159 84q79 0 129 -71q44 -62 60 -150h41l-5 247h-39l-20 -33q-79 48 -172 48q-141 0 -234 -101q-96 -104 -96 -267q0 -159 95 -261
q92 -95 220 -95zM428 848q0 25 -18 43.5t-45 18.5q-25 0 -43.5 -19.5t-18.5 -46.5q0 -26 18.5 -45t43.5 -19q27 0 45 20t18 48z" />
    <glyph glyph-name="cdotaccent" unicode="&#x10b;" horiz-adv-x="454" 
d="M258 -13q56 0 108.5 34t85.5 91l-32 21q-28 -47 -60 -69.5t-78 -22.5q-66 0 -106 57q-40 58 -40 149q0 110 40 165q35 46 86 46q49 0 64 -25q0 -4 -6.5 -33t-6.5 -46q0 -19 16.5 -33t44.5 -14q25 0 37.5 17.5t12.5 44.5q0 57 -44 91.5t-116 34.5q-103 0 -167 -77
q-62 -74 -62 -175q0 -118 59.5 -187t163.5 -69zM315 677q0 25 -18 43.5t-45 18.5q-25 0 -43.5 -19.5t-18.5 -46.5q0 -26 18.5 -45t43.5 -19q27 0 45 20t18 48z" />
    <glyph glyph-name="Ccaron" unicode="&#x10c;" horiz-adv-x="642" 
d="M353 -16q99 0 167 45.5t109 145.5l-36 18q-24 -65 -73 -109q-55 -45 -131 -45q-103 0 -169 88q-65 85 -65 220q0 152 60 236t159 84q79 0 129 -71q44 -62 60 -150h41l-5 247h-39l-20 -33q-79 48 -172 48q-141 0 -234 -101q-96 -104 -96 -267q0 -159 95 -261
q92 -95 220 -95zM525 896l-24 16l-134 -104l-136 104l-24 -16l116 -140q6 -8 9.5 -11t11.5 -6t21 -3q16 0 24 3t10 5t11 14z" />
    <glyph glyph-name="ccaron" unicode="&#x10d;" horiz-adv-x="454" 
d="M258 -13q56 0 108.5 34t85.5 91l-32 21q-28 -47 -60 -69.5t-78 -22.5q-66 0 -106 57q-40 58 -40 149q0 110 40 165q35 46 86 46q49 0 64 -25q0 -4 -6.5 -33t-6.5 -46q0 -19 16.5 -33t44.5 -14q25 0 37.5 17.5t12.5 44.5q0 57 -44 91.5t-116 34.5q-103 0 -167 -77
q-62 -74 -62 -175q0 -118 59.5 -187t163.5 -69zM414 737l-24 16l-136 -133l-134 133l-24 -16l116 -169q7 -10 10 -13t11.5 -6t22.5 -3q19 0 25.5 3.5t15.5 16.5z" />
    <glyph glyph-name="Dcaron" unicode="&#x10e;" horiz-adv-x="749" 
d="M711 342q0 185 -130 280q-99 71 -228 71h-303v-35q34 -2 63 -15q28 -15 28 -51v-500q0 -36 -28 -49q-22 -8 -67 -8v-35h287q152 0 259 83q119 92 119 259zM592 343q0 -140 -58 -220q-62 -83 -184 -83q-56 0 -80.5 17.5t-24.5 61.5v532q32 2 82 2q119 0 192 -86
q73 -85 73 -224zM506 896l-24 16l-134 -104l-136 104l-24 -16l116 -140q6 -8 9.5 -11t11.5 -6t21 -3q16 0 24 3t10 5t11 14z" />
    <glyph glyph-name="dcaron" unicode="&#x10f;" horiz-adv-x="665" 
d="M562 9v32q-44 0 -59 9q-25 17 -25 49v650l-8 7l-197 -11v-31q68 -6 87 -19q26 -18 26 -63v-168q-51 31 -122 31q-45 0 -88 -19.5t-73 -52.5q-68 -74 -68 -181q0 -113 63 -186q59 -70 146 -70q39 0 76.5 18t62.5 47l4 -1v-45l8 -7zM386 93q-46 -54 -108 -54q-69 0 -107 60
q-34 55 -34 137q0 104 39 163q40 59 98 59q42 0 78 -29q25 -24 34 -54v-282zM675 654q0 100 -77 100q-26 0 -42 -17t-16 -39q0 -28 17 -43.5t48 -15.5h23q-4 -45 -31 -72q-15 -19 -66 -48l17 -29q45 21 80 59q47 47 47 105z" />
    <glyph glyph-name="Dcroat" unicode="&#x110;" horiz-adv-x="749" 
d="M711 342q0 185 -130 280q-99 71 -228 71h-303v-35q34 -2 63 -15q28 -15 28 -51v-202h-91v-48h91v-250q0 -36 -28 -49q-22 -8 -67 -8v-35h287q152 0 259 83q119 92 119 259zM592 343q0 -140 -58 -220q-62 -83 -184 -83q-56 0 -80.5 17.5t-24.5 61.5v223h147v48h-147v261
q32 2 82 2q119 0 192 -86q73 -85 73 -224z" />
    <glyph glyph-name="dcroat" unicode="&#x111;" horiz-adv-x="574" 
d="M562 9v32q-44 0 -59 9q-25 17 -25 49v472h105v42h-105v136l-8 7l-197 -11v-31q68 -6 87 -19q27 -19 27 -63v-19h-177v-42h176v-107q-51 31 -122 31q-45 0 -88 -19.5t-73 -52.5q-68 -74 -68 -181q0 -113 63 -186q59 -70 146 -70q39 0 76.5 18t62.5 47l4 -1v-45l8 -7z
M386 93q-46 -54 -108 -54q-69 0 -107 60q-34 55 -34 137q0 104 39 163q40 59 98 59q42 0 78 -29q25 -24 34 -54v-282z" />
    <glyph glyph-name="Emacron" unicode="&#x112;" horiz-adv-x="653" 
d="M630 204h-35q-9 -26 -32 -70q-25 -50 -46 -71q-15 -15 -67 -21q-16 -2 -87 -2q-77 0 -97 15q-21 15 -21 76v208h78q61 0 85 -30q24 -32 29 -88h36v271h-36q-8 -55 -29 -82q-13 -18 -31 -24.5t-54 -6.5h-78v275h109q56 0 83 -4q31 -5 62 -46q32 -40 43 -78h36v167h-536
v-35q40 -2 71 -17q28 -13 28 -49v-498q0 -34 -28 -49q-7 -3 -32 -6q-4 -1 -39 -4v-35h575zM518 809v63h-334v-63h334z" />
    <glyph glyph-name="emacron" unicode="&#x113;" horiz-adv-x="483" 
d="M463 113l-34 21q-30 -51 -61 -72t-75 -21q-82 0 -123 61q-38 55 -38 154h319v32q0 90 -44 145q-51 62 -152 62q-100 0 -161 -77q-59 -73 -59 -173q0 -109 56 -182q63 -76 174 -76q64 0 115.5 33.5t82.5 92.5zM355 297h-223q3 75 36.5 118t85.5 43q55 0 81 -50
q20 -37 20 -111zM420 630v63h-334v-63h334z" />
    <glyph glyph-name="Ebreve" unicode="&#x114;" horiz-adv-x="653" 
d="M630 204h-35q-9 -26 -32 -70q-25 -50 -46 -71q-15 -15 -67 -21q-16 -2 -87 -2q-77 0 -97 15q-21 15 -21 76v208h78q61 0 85 -30q24 -32 29 -88h36v271h-36q-8 -55 -29 -82q-13 -18 -31 -24.5t-54 -6.5h-78v275h109q56 0 83 -4q31 -5 62 -46q32 -40 43 -78h36v167h-536
v-35q40 -2 71 -17q28 -13 28 -49v-498q0 -34 -28 -49q-7 -3 -32 -6q-4 -1 -39 -4v-35h575zM506 904l-27 8q-15 -47 -44.5 -70t-83.5 -23t-83.5 23t-44.5 70l-27 -8q12 -77 51.5 -117t103.5 -40q130 0 155 157z" />
    <glyph glyph-name="ebreve" unicode="&#x115;" horiz-adv-x="483" 
d="M463 113l-34 21q-30 -51 -61 -72t-75 -21q-82 0 -123 61q-38 55 -38 154h319v32q0 90 -44 145q-51 62 -152 62q-100 0 -161 -77q-59 -73 -59 -173q0 -109 56 -182q63 -76 174 -76q64 0 115.5 33.5t82.5 92.5zM355 297h-223q3 75 36.5 118t85.5 43q55 0 81 -50
q20 -37 20 -111zM406 730l-27 6q-15 -55 -41 -81q-29 -31 -85 -31q-54 0 -86 32q-24 25 -40 80l-27 -6q25 -180 153 -180q125 0 153 180z" />
    <glyph glyph-name="Edotaccent" unicode="&#x116;" horiz-adv-x="653" 
d="M630 204h-35q-9 -26 -32 -70q-25 -50 -46 -71q-15 -15 -67 -21q-16 -2 -87 -2q-77 0 -97 15q-21 15 -21 76v208h78q61 0 85 -30q24 -32 29 -88h36v271h-36q-8 -55 -29 -82q-13 -18 -31 -24.5t-54 -6.5h-78v275h109q56 0 83 -4q31 -5 62 -46q32 -40 43 -78h36v167h-536
v-35q40 -2 71 -17q28 -13 28 -49v-498q0 -34 -28 -49q-7 -3 -32 -6q-4 -1 -39 -4v-35h575zM392 848q0 25 -18 43.5t-45 18.5q-25 0 -43.5 -19.5t-18.5 -46.5q0 -26 18.5 -45t43.5 -19q27 0 45 20t18 48z" />
    <glyph glyph-name="edotaccent" unicode="&#x117;" horiz-adv-x="483" 
d="M463 113l-34 21q-30 -51 -61 -72t-75 -21q-82 0 -123 61q-38 55 -38 154h319v32q0 90 -44 145q-51 62 -152 62q-100 0 -161 -77q-59 -73 -59 -173q0 -109 56 -182q63 -76 174 -76q64 0 115.5 33.5t82.5 92.5zM355 297h-223q3 75 36.5 118t85.5 43q55 0 81 -50
q20 -37 20 -111zM315 677q0 25 -18 43.5t-45 18.5q-25 0 -43.5 -19.5t-18.5 -46.5q0 -26 18.5 -45t43.5 -19q27 0 45 20t18 48z" />
    <glyph glyph-name="Eogonek" unicode="&#x118;" horiz-adv-x="653" 
d="M485 0q-85 -60 -85 -122q0 -45 34 -70t97 -25h56v35q-61 0 -87 21q-22 19 -22 55q0 65 45 106h94l13 204h-35q-9 -26 -32 -70q-25 -50 -46 -71q-15 -15 -67 -21q-16 -2 -87 -2q-77 0 -97 15q-21 15 -21 76v208h78q61 0 85 -30q24 -32 29 -88h36v271h-36q-8 -55 -29 -82
q-13 -18 -31 -24.5t-54 -6.5h-78v275h109q56 0 83 -4q31 -5 62 -46q32 -40 43 -78h36v167h-536v-35q40 -2 71 -17q28 -13 28 -49v-498q0 -34 -28 -49q-7 -3 -32 -6q-4 -1 -39 -4v-35h443z" />
    <glyph glyph-name="eogonek" unicode="&#x119;" horiz-adv-x="483" 
d="M300 -10q-71 -57 -71 -112q0 -45 34 -70t96 -25h57v35q-61 0 -88 21q-22 19 -22 55q0 68 60 118q60 31 97 101l-34 21q-30 -51 -61 -72t-75 -21q-82 0 -123 61q-38 55 -38 154h319v32q0 90 -44 145q-51 62 -152 62q-100 0 -161 -77q-59 -73 -59 -173q0 -109 56 -182
q62 -75 174 -75q13 0 35 2zM355 297h-223q3 75 36.5 118t85.5 43q55 0 81 -50q20 -37 20 -111z" />
    <glyph glyph-name="Ecaron" unicode="&#x11a;" horiz-adv-x="653" 
d="M630 204h-35q-9 -26 -32 -70q-25 -50 -46 -71q-15 -15 -67 -21q-16 -2 -87 -2q-77 0 -97 15q-21 15 -21 76v208h78q61 0 85 -30q24 -32 29 -88h36v271h-36q-8 -55 -29 -82q-13 -18 -31 -24.5t-54 -6.5h-78v275h109q56 0 83 -4q31 -5 62 -46q32 -40 43 -78h36v167h-536
v-35q40 -2 71 -17q28 -13 28 -49v-498q0 -34 -28 -49q-7 -3 -32 -6q-4 -1 -39 -4v-35h575zM497 896l-24 16l-134 -104l-136 104l-24 -16l116 -140q6 -8 9.5 -11t11.5 -6t21 -3q16 0 24 3t10 5t11 14z" />
    <glyph glyph-name="ecaron" unicode="&#x11b;" horiz-adv-x="483" 
d="M463 113l-34 21q-30 -51 -61 -72t-75 -21q-82 0 -123 61q-38 55 -38 154h319v32q0 90 -44 145q-51 62 -152 62q-100 0 -161 -77q-59 -73 -59 -173q0 -109 56 -182q63 -76 174 -76q64 0 115.5 33.5t82.5 92.5zM355 297h-223q3 75 36.5 118t85.5 43q55 0 81 -50
q20 -37 20 -111zM414 737l-24 16l-136 -133l-134 133l-24 -16l116 -169q7 -10 10 -13t11.5 -6t22.5 -3q19 0 25.5 3.5t15.5 16.5z" />
    <glyph glyph-name="Gcircumflex" unicode="&#x11c;" horiz-adv-x="725" 
d="M718 277v35h-303v-35q61 -3 86 -16q29 -11 29 -59v-38q0 -68 -4 -96q-17 -16 -53 -28.5t-76 -12.5q-114 0 -178 94q-62 85 -62 225q0 154 62 236q61 85 164 85q88 0 141 -68q40 -52 64 -148h40l-4 242h-39l-20 -33q-78 48 -179 48q-148 0 -248 -103q-100 -105 -100 -264
q0 -160 101 -261q96 -96 236 -96q121 0 255 60q-1 5 -1.5 16.5t-0.5 17.5v79v54q0 40 27 52q7 4 18.5 6.5t26.5 4.5t18 3zM539 751l-116 141q-6 8 -9.5 11t-11.5 6t-21 3q-19 0 -27.5 -4.5t-17.5 -17.5l-115 -139l24 -15l134 103l136 -103z" />
    <glyph glyph-name="gcircumflex" unicode="&#x11d;" horiz-adv-x="509" 
d="M448 50q-39 35 -87 37q-15 1 -53 3q-38 3 -58 3q-53 2 -72 7q-35 7 -35 40q0 30 35 42h59q68 0 120 44q52 43 52 107q0 55 -36 97v3h113v46h-168q-52 16 -88 16q-78 0 -130 -44q-51 -44 -51 -112q0 -89 98 -136v-8q-73 -30 -73 -85q0 -37 28 -58q14 -11 57 -27v-6
q-61 -3 -99.5 -32.5t-38.5 -77.5q0 -126 217 -126q121 0 191 49q61 44 61 118q0 58 -42 100zM316 335q0 -53 -23 -86t-64 -33q-38 0 -61.5 34t-23.5 88q0 57 18 86q20 36 66 36q42 0 65 -33.5t23 -91.5zM410 -68q0 -56 -40.5 -84t-114.5 -28q-77 0 -116 29q-33 23 -33 62
t23 62.5t75 33.5q114 0 154 -7q52 -12 52 -68zM396 562l-117 171q-8 11 -15 15.5t-26 4.5q-20 0 -27.5 -4.5t-16.5 -17.5l-116 -169l24 -16l134 133l136 -133z" />
    <glyph glyph-name="Gbreve" unicode="&#x11e;" horiz-adv-x="725" 
d="M718 277v35h-303v-35q61 -3 86 -16q29 -11 29 -59v-38q0 -68 -4 -96q-17 -16 -53 -28.5t-76 -12.5q-114 0 -178 94q-62 85 -62 225q0 154 62 236q61 85 164 85q88 0 141 -68q40 -52 64 -148h40l-4 242h-39l-20 -33q-78 48 -179 48q-148 0 -248 -103q-100 -105 -100 -264
q0 -160 101 -261q96 -96 236 -96q121 0 255 60q-1 5 -1.5 16.5t-0.5 17.5v79v54q0 40 27 52q7 4 18.5 6.5t26.5 4.5t18 3zM537 904l-27 8q-15 -47 -44.5 -70t-83.5 -23t-83.5 23t-44.5 70l-27 -8q12 -77 51.5 -117t103.5 -40q130 0 155 157z" />
    <glyph glyph-name="gbreve" unicode="&#x11f;" horiz-adv-x="509" 
d="M448 50q-39 35 -87 37q-15 1 -53 3q-38 3 -58 3q-53 2 -72 7q-35 7 -35 40q0 30 35 42h59q68 0 120 44q52 43 52 107q0 55 -36 97v3h113v46h-168q-52 16 -88 16q-78 0 -130 -44q-51 -44 -51 -112q0 -89 98 -136v-8q-73 -30 -73 -85q0 -37 28 -58q14 -11 57 -27v-6
q-61 -3 -99.5 -32.5t-38.5 -77.5q0 -126 217 -126q121 0 191 49q61 44 61 118q0 58 -42 100zM316 335q0 -53 -23 -86t-64 -33q-38 0 -61.5 34t-23.5 88q0 57 18 86q20 36 66 36q42 0 65 -33.5t23 -91.5zM410 -68q0 -56 -40.5 -84t-114.5 -28q-77 0 -116 29q-33 23 -33 62
t23 62.5t75 33.5q114 0 154 -7q52 -12 52 -68zM394 730l-27 6q-15 -55 -41 -81q-29 -31 -85 -31q-54 0 -86 32q-24 25 -40 80l-27 -6q25 -180 153 -180q125 0 153 180z" />
    <glyph glyph-name="Gdotaccent" unicode="&#x120;" horiz-adv-x="725" 
d="M718 277v35h-303v-35q61 -3 86 -16q29 -11 29 -59v-38q0 -68 -4 -96q-17 -16 -53 -28.5t-76 -12.5q-114 0 -178 94q-62 85 -62 225q0 154 62 236q61 85 164 85q88 0 141 -68q40 -52 64 -148h40l-4 242h-39l-20 -33q-78 48 -179 48q-148 0 -248 -103q-100 -105 -100 -264
q0 -160 101 -261q96 -96 236 -96q121 0 255 60q-1 5 -1.5 16.5t-0.5 17.5v79v54q0 40 27 52q7 4 18.5 6.5t26.5 4.5t18 3zM442 848q0 25 -18 43.5t-45 18.5q-25 0 -43.5 -19.5t-18.5 -46.5q0 -26 18.5 -45t43.5 -19q27 0 45 20t18 48z" />
    <glyph glyph-name="gdotaccent" unicode="&#x121;" horiz-adv-x="509" 
d="M448 50q-39 35 -87 37q-15 1 -53 3q-38 3 -58 3q-53 2 -72 7q-35 7 -35 40q0 30 35 42h59q68 0 120 44q52 43 52 107q0 55 -36 97v3h113v46h-168q-52 16 -88 16q-78 0 -130 -44q-51 -44 -51 -112q0 -89 98 -136v-8q-73 -30 -73 -85q0 -37 28 -58q14 -11 57 -27v-6
q-61 -3 -99.5 -32.5t-38.5 -77.5q0 -126 217 -126q121 0 191 49q61 44 61 118q0 58 -42 100zM316 335q0 -53 -23 -86t-64 -33q-38 0 -61.5 34t-23.5 88q0 57 18 86q20 36 66 36q42 0 65 -33.5t23 -91.5zM410 -68q0 -56 -40.5 -84t-114.5 -28q-77 0 -116 29q-33 23 -33 62
t23 62.5t75 33.5q114 0 154 -7q52 -12 52 -68zM301 677q0 25 -18 43.5t-45 18.5q-25 0 -43.5 -19.5t-18.5 -46.5q0 -26 18.5 -45t43.5 -19q27 0 45 20t18 48z" />
    <glyph glyph-name="Gcommaaccent" unicode="&#x122;" horiz-adv-x="725" 
d="M718 277v35h-303v-35q61 -3 86 -16q29 -11 29 -59v-38q0 -68 -4 -96q-17 -16 -53 -28.5t-76 -12.5q-114 0 -178 94q-62 85 -62 225q0 154 62 236q61 85 164 85q88 0 141 -68q40 -52 64 -148h40l-4 242h-39l-20 -33q-78 48 -179 48q-148 0 -248 -103q-100 -105 -100 -264
q0 -160 101 -261q96 -96 236 -96q121 0 255 60q-1 5 -1.5 16.5t-0.5 17.5v79v54q0 40 27 52q7 4 18.5 6.5t26.5 4.5t18 3zM452 -113q0 36 -20 58.5t-52 22.5q-26 0 -41.5 -14.5t-15.5 -33.5q0 -46 58 -46h27q-1 -31 -20 -45.5t-65 -17.5v-28q59 0 94 26.5t35 77.5z" />
    <glyph glyph-name="gcommaaccent" unicode="&#x123;" horiz-adv-x="509" 
d="M448 50q-39 35 -87 37q-15 1 -53 3q-38 3 -58 3q-53 2 -72 7q-35 7 -35 40q0 30 35 42h59q68 0 120 44q52 43 52 107q0 55 -36 97v3h113v46h-168q-52 16 -88 16q-78 0 -130 -44q-51 -44 -51 -112q0 -89 98 -136v-8q-73 -30 -73 -85q0 -37 28 -58q14 -11 57 -27v-6
q-61 -3 -99.5 -32.5t-38.5 -77.5q0 -126 217 -126q121 0 191 49q61 44 61 118q0 58 -42 100zM316 335q0 -53 -23 -86t-64 -33q-38 0 -61.5 34t-23.5 88q0 57 18 86q20 36 66 36q42 0 65 -33.5t23 -91.5zM410 -68q0 -56 -40.5 -84t-114.5 -28q-77 0 -116 29q-33 23 -33 62
t23 62.5t75 33.5q114 0 154 -7q52 -12 52 -68zM307 751l-16 29q-53 -25 -82 -51q-46 -46 -46 -93q0 -92 78 -92q25 0 41.5 16.5t16.5 36.5q0 25 -17 39t-48 14h-22q6 42 32 62q15 14 63 39z" />
    <glyph glyph-name="Hcircumflex" unicode="&#x124;" horiz-adv-x="815" 
d="M765 0v35q-34 0 -63 13q-28 16 -28 50v499q0 40 28 49q31 12 63 12v35h-287v-35q32 -2 64 -17q28 -12 28 -49v-210h-325v215q0 40 27 49q31 12 63 12v35h-287v-35q31 -2 64 -17q29 -12 29 -49v-500q0 -37 -29 -49q-13 -5 -64 -8v-35h287v35q-32 0 -63 13q-27 15 -27 50
v241h325v-247q0 -38 -28 -49q-13 -5 -64 -8v-35h287zM567 751l-116 141q-6 8 -9.5 11t-11.5 6t-21 3q-19 0 -27.5 -4.5t-17.5 -17.5l-115 -139l24 -15l134 103l136 -103z" />
    <glyph glyph-name="hcircumflex" unicode="&#x125;" horiz-adv-x="582" 
d="M558 0v32q-16 1 -44 10q-26 11 -26 44v250q0 77 -35 118t-99 41q-58 0 -100 -28q-24 -14 -64 -54h-2v273l-7 7l-178 -11v-32q53 -3 67 -12q27 -20 27 -58v-498q0 -36 -27 -44q-15 -4 -44 -6v-32h236v32q-27 2 -47 11q-27 11 -27 44v277q19 31 39 45q43 28 86 28
q36 0 59.5 -28.5t23.5 -78.5v-248q0 -37 -27 -44q-11 -4 -47 -6v-32h236zM454 751l-115 141q-15 20 -43 20q-18 0 -26.5 -5t-18.5 -17l-114 -139l23 -15l134 103l137 -103z" />
    <glyph glyph-name="Hbar" unicode="&#x126;" horiz-adv-x="815" 
d="M765 0v35q-34 0 -63 13q-28 16 -28 50v396h91v43h-91v60q0 40 28 49q31 12 63 12v35h-287v-35q32 -2 64 -17q28 -12 28 -49v-55h-325v60q0 40 27 49q31 12 63 12v35h-287v-35q31 -2 64 -17q29 -12 29 -49v-55h-91v-43h91v-402q0 -37 -29 -49q-13 -5 -64 -8v-35h287v35
q-32 0 -63 13q-27 15 -27 50v241h325v-247q0 -38 -28 -49q-13 -5 -64 -8v-35h287zM570 382h-325v112h325v-112z" />
    <glyph glyph-name="hbar" unicode="&#x127;" horiz-adv-x="582" 
d="M558 0v32q-16 1 -44 10q-26 11 -26 44v250q0 77 -35 118t-99 41q-58 0 -100 -28q-24 -14 -64 -54h-2v158h171v42h-171v136l-7 7l-178 -11v-32q53 -3 67 -12q27 -20 27 -58v-30h-111v-42h111v-489q0 -36 -27 -44q-15 -4 -44 -6v-32h236v32q-27 2 -47 11q-27 11 -27 44v277
q19 31 39 45q43 28 86 28q36 0 59.5 -28.5t23.5 -78.5v-248q0 -37 -27 -44q-11 -4 -47 -6v-32h236z" />
    <glyph glyph-name="Itilde" unicode="&#x128;" horiz-adv-x="390" 
d="M351 0v35q-39 0 -73 13q-31 15 -31 49v501q0 39 31 48q34 12 73 12v35h-312v-35q35 -2 73 -17q19 -8 25 -18.5t6 -29.5v-502q0 -35 -31 -48q-15 -5 -73 -8v-35h312zM378 896l-30 11q-13 -34 -25 -48q-14 -17 -51 -17q-17 0 -57 25q-42 25 -79 25q-44 0 -79 -42
q-27 -33 -42 -77l28 -12q25 45 30 50q17 17 39 17q26 0 61 -26q42 -25 80 -25q44 0 83 42q29 30 42 77z" />
    <glyph glyph-name="itilde" unicode="&#x129;" horiz-adv-x="293" 
d="M269 0v32q-13 1 -44 11q-27 10 -27 45v392l-7 7l-170 -10v-32q39 -2 59 -15q27 -19 27 -51v-297q0 -37 -27 -44q-12 -4 -44 -6v-32h233zM303 716l-28 12q-11 -34 -22 -48q-12 -18 -45 -18q-18 0 -51 25t-71 25q-40 0 -71 -42q-25 -34 -38 -76l26 -12q4 7 8 15.5t6 13.5
t5.5 10.5t7.5 9.5q13 17 34 17t55 -25q33 -25 72 -25q40 0 74 42q24 26 38 76z" />
    <glyph glyph-name="Imacron" unicode="&#x12a;" horiz-adv-x="390" 
d="M351 0v35q-39 0 -73 13q-31 15 -31 49v501q0 39 31 48q34 12 73 12v35h-312v-35q35 -2 73 -17q19 -8 25 -18.5t6 -29.5v-502q0 -35 -31 -48q-15 -5 -73 -8v-35h312zM352 809v63h-314v-63h314z" />
    <glyph glyph-name="imacron" unicode="&#x12b;" horiz-adv-x="293" 
d="M269 0v32q-13 1 -44 11q-27 10 -27 45v392l-7 7l-170 -10v-32q39 -2 59 -15q27 -19 27 -51v-297q0 -37 -27 -44q-12 -4 -44 -6v-32h233zM273 630v63h-286v-63h286z" />
    <glyph glyph-name="Ibreve" unicode="&#x12c;" horiz-adv-x="390" 
d="M351 0v35q-39 0 -73 13q-31 15 -31 49v501q0 39 31 48q34 12 73 12v35h-312v-35q35 -2 73 -17q19 -8 25 -18.5t6 -29.5v-502q0 -35 -31 -48q-15 -5 -73 -8v-35h312zM349 904l-27 8q-15 -47 -44.5 -70t-83.5 -23t-83.5 23t-44.5 70l-27 -8q12 -77 51.5 -117t103.5 -40
q130 0 155 157z" />
    <glyph glyph-name="ibreve" unicode="&#x12d;" horiz-adv-x="293" 
d="M269 0v32q-13 1 -44 11q-27 10 -27 45v392l-7 7l-170 -10v-32q39 -2 59 -15q27 -19 27 -51v-297q0 -37 -27 -44q-12 -4 -44 -6v-32h233zM269 730l-24 6q-17 -60 -33 -81q-25 -31 -76 -31q-50 0 -76 32q-18 26 -32 80l-25 -6q18 -180 133 -180q59 0 91 44.5t42 135.5z" />
    <glyph glyph-name="Iogonek" unicode="&#x12e;" horiz-adv-x="390" 
d="M194 0q-85 -60 -85 -122q0 -45 34 -70t97 -25h56v35q-61 0 -88 21q-21 18 -21 55q0 65 45 106h119v35q-39 0 -73 13q-31 15 -31 49v501q0 39 31 48q34 12 73 12v35h-312v-35q35 -2 73 -17q19 -8 25 -18.5t6 -29.5v-502q0 -35 -31 -48q-15 -5 -73 -8v-35h155z" />
    <glyph glyph-name="iogonek" unicode="&#x12f;" horiz-adv-x="293" 
d="M150 0q-85 -60 -85 -122q0 -45 34 -70t97 -25h56v35q-61 0 -87 21q-22 18 -22 55q0 63 45 106h81v32q-13 1 -44 11q-27 10 -27 45v392l-7 7l-170 -10v-32q39 -2 59 -15q27 -19 27 -51v-297q0 -37 -27 -44q-12 -4 -44 -6v-32h114zM208 677q0 25 -18.5 44t-45.5 19
q-25 0 -43 -20t-18 -47q0 -26 18 -45.5t43 -19.5q27 0 45.5 20.5t18.5 48.5z" />
    <glyph glyph-name="Idotaccent" unicode="&#x130;" horiz-adv-x="390" 
d="M351 0v35q-39 0 -73 13q-31 15 -31 49v501q0 39 31 48q34 12 73 12v35h-312v-35q35 -2 73 -17q19 -8 25 -18.5t6 -29.5v-502q0 -35 -31 -48q-15 -5 -73 -8v-35h312zM257 848q0 25 -18 43.5t-45 18.5q-25 0 -43.5 -19.5t-18.5 -46.5q0 -26 18.5 -45t43.5 -19q27 0 45 20
t18 48z" />
    <glyph glyph-name="dotlessi" unicode="&#x131;" horiz-adv-x="293" 
d="M269 0v32q-13 1 -44 11q-27 10 -27 45v392l-7 7l-170 -10v-32q39 -2 59 -15q27 -19 27 -51v-297q0 -37 -27 -44q-12 -4 -44 -6v-32h233z" />
    <glyph glyph-name="IJ" unicode="&#x132;" horiz-adv-x="888" 
d="M351 0v35q-39 0 -73 13q-31 15 -31 49v501q0 39 31 48q34 12 73 12v35h-312v-35q35 -2 73 -17q19 -8 25 -18.5t6 -29.5v-502q0 -35 -31 -48q-15 -5 -73 -8v-35h312zM861 658v35h-305v-35q49 -3 75 -17q29 -15 29 -49v-366q0 -95 -20 -146q-27 -60 -93 -60q-67 0 -90 41
q7 21 30 53q20 29 20 59q0 27 -17.5 43.5t-47.5 16.5q-31 0 -49 -24.5t-18 -60.5q0 -75 49 -120t130 -45q97 0 160 71q51 57 51 133v410q0 40 28 49q33 12 68 12z" />
    <glyph glyph-name="ij" unicode="&#x133;" horiz-adv-x="572" 
d="M269 0v32q-13 1 -44 11q-27 10 -27 45v392l-7 7l-170 -10v-32q39 -2 59 -15q27 -19 27 -51v-297q0 -37 -27 -44q-12 -4 -44 -6v-32h233zM208 677q0 25 -18.5 44t-45.5 19q-25 0 -43 -20t-18 -47q0 -26 18 -45.5t43 -19.5q27 0 45.5 20.5t18.5 48.5zM490 29v451l-6 7
l-194 -10v-31q20 -2 44 -7q28 -4 38 -10q28 -21 28 -54v-362q0 -99 -16 -144t-53 -45q-5 7 -15.5 23.5t-15.5 23.5q-21 23 -48 23q-21 0 -33.5 -15.5t-12.5 -37.5q0 -25 23 -41.5t65 -16.5q82 0 139 68q57 65 57 178zM498 678q0 25 -18.5 43.5t-45.5 18.5q-25 0 -43 -20
t-18 -47q0 -25 18.5 -45t42.5 -20q27 0 45.5 21t18.5 49z" />
    <glyph glyph-name="Jcircumflex" unicode="&#x134;" horiz-adv-x="518" 
d="M491 658v35h-305v-35q49 -3 75 -17q29 -15 29 -49v-366q0 -95 -20 -146q-27 -60 -93 -60q-67 0 -90 41q7 21 30 53q20 29 20 59q0 27 -17.5 43.5t-47.5 16.5q-31 0 -49 -24.5t-18 -60.5q0 -75 49 -120t130 -45q97 0 160 71q51 57 51 133v410q0 40 28 49q33 12 68 12z
M492 751l-116 141q-6 8 -9.5 11t-11.5 6t-21 3q-19 0 -27.5 -4.5t-17.5 -17.5l-115 -139l24 -15l134 103l136 -103z" />
    <glyph glyph-name="jcircumflex" unicode="&#x135;" horiz-adv-x="292" 
d="M210 29v451l-6 7l-194 -10v-31q20 -2 44 -7q28 -4 38 -10q28 -21 28 -54v-362q0 -99 -16 -144t-53 -45q-5 7 -15.5 23.5t-15.5 23.5q-21 23 -48 23q-21 0 -33.5 -15.5t-12.5 -37.5q0 -25 23 -41.5t65 -16.5q82 0 139 68q57 65 57 178zM280 562l-107 171q-12 20 -41 20
q-32 0 -44 -22l-106 -169l23 -16l125 133l126 -133z" />
    <glyph glyph-name="Kcommaaccent" unicode="&#x136;" horiz-adv-x="694" 
d="M720 0v35q-37 0 -63 13q-45 25 -78 66l-104 129q-40 52 -122 145q61 57 213 230q24 24 65 33q28 5 32 6h6t5 0.5t4 0.5h2v35h-260v-35q21 0 42 -5q30 -7 30 -19q0 -20 -16.5 -46t-57.5 -72q-73 -83 -164 -158h-9v239q0 40 28 49q31 12 64 12v35h-287v-35q31 -2 63 -17
q28 -15 28 -49v-500q0 -36 -28 -49q-14 -5 -63 -8v-35h287v35q-28 0 -64 13q-28 15 -28 50v241h12q161 -173 269 -339h194zM464 -113q0 36 -20 58.5t-52 22.5q-26 0 -41.5 -14.5t-15.5 -33.5q0 -46 58 -46h27q-1 -31 -20 -45.5t-65 -17.5v-28q59 0 94 26.5t35 77.5z" />
    <glyph glyph-name="kcommaaccent" unicode="&#x137;" horiz-adv-x="536" 
d="M545 0v32q-33 2 -50 11t-38 38l-73 99q-47 65 -90 118l57 55t36 35q52 43 121 63v30h-212v-31q62 -7 62 -28q0 -10 -13 -23q-31 -35 -75 -78l-82 -82v510l-7 7l-178 -11v-32q55 -3 67 -13q27 -20 27 -58v-560q0 -36 -27 -44q-15 -4 -44 -6v-32h236v32q-25 1 -47 11
q-27 10 -27 46v114l40 38l55.5 -74l69 -98l47.5 -69h145zM373 -113q0 36 -20 58.5t-52 22.5q-26 0 -41.5 -14.5t-15.5 -33.5q0 -46 58 -46h27q-1 -31 -20 -45.5t-65 -17.5v-28q59 0 94 26.5t35 77.5z" />
    <glyph glyph-name="kgreenlandic" unicode="&#x138;" horiz-adv-x="544" 
d="M554 0v32q-34 2 -50.5 11t-37.5 38l-73 99q-47 65 -90 118l42 40.5l32.5 32.5t18.5 17q52 43 121 63v30h-212v-31q62 -7 62 -28q0 -7 -13 -23q-32 -35 -75 -78l-82 -82v241l-7 7l-160 -10v-32q31 -2 49 -12q27 -19 27 -54v-297q0 -36 -27 -44q-17 -4 -44 -6v-32h236v32
q-26 1 -47 11q-27 9 -27 46v114l40 38l55.5 -74l69 -98l47.5 -69h145z" />
    <glyph glyph-name="Lacute" unicode="&#x139;" horiz-adv-x="604" 
d="M604 206h-35q-10 -28 -37 -74q-22 -41 -46 -68q-11 -14 -53 -21q-29 -5 -75 -5q-78 0 -95 14q-18 15 -18 78v465q0 40 28 51q39 12 67 12v35h-292v-35q35 -2 65 -18q28 -15 28 -50v-496q0 -37 -28 -50q-18 -6 -65 -9v-35h541zM386 818q45 22 45 55q0 17 -13 28t-32 11
q-28 0 -56 -31l-128 -126l15 -19l68.5 33l64 30.5t36.5 18.5z" />
    <glyph glyph-name="lacute" unicode="&#x13a;" horiz-adv-x="286" 
d="M261 0v32q-25 1 -45 11q-27 11 -27 45v598l-7 7l-181 -11v-32q50 -3 70 -16q27 -20 27 -57v-495q0 -36 -27 -44q-16 -4 -45 -6v-32h235zM277 873q0 17 -13.5 28t-31.5 11q-29 0 -56 -31l-128 -126l15 -19l68.5 33l63.5 30.5t37 18.5q45 23 45 55z" />
    <glyph glyph-name="Lcommaaccent" unicode="&#x13b;" horiz-adv-x="604" 
d="M604 206h-35q-10 -28 -37 -74q-22 -41 -46 -68q-11 -14 -53 -21q-29 -5 -75 -5q-78 0 -95 14q-18 15 -18 78v465q0 40 28 51q39 12 67 12v35h-292v-35q35 -2 65 -18q28 -15 28 -50v-496q0 -37 -28 -50q-18 -6 -65 -9v-35h541zM414 -113q0 36 -20 58.5t-52 22.5
q-26 0 -41.5 -14.5t-15.5 -33.5q0 -46 58 -46h27q-1 -31 -20 -45.5t-65 -17.5v-28q59 0 94 26.5t35 77.5z" />
    <glyph glyph-name="lcommaaccent" unicode="&#x13c;" horiz-adv-x="286" 
d="M261 0v32q-25 1 -45 11q-27 11 -27 45v661l-7 7l-181 -11v-32q50 -3 70 -16q27 -20 27 -57v-558q0 -36 -27 -44q-16 -4 -45 -6v-32h235zM220 -113q0 36 -20 58.5t-52 22.5q-26 0 -41.5 -14.5t-15.5 -33.5q0 -46 58 -46h27q-1 -31 -20 -45.5t-65 -17.5v-28q59 0 94 26.5
t35 77.5z" />
    <glyph glyph-name="Lcaron" unicode="&#x13d;" horiz-adv-x="604" 
d="M604 206h-35q-10 -28 -37 -74q-22 -41 -46 -68q-11 -14 -53 -21q-29 -5 -75 -5q-78 0 -95 14q-18 15 -18 78v465q0 40 28 51q39 12 67 12v35h-292v-35q35 -2 65 -18q28 -15 28 -50v-496q0 -37 -28 -50q-18 -6 -65 -9v-35h541zM557 600q0 100 -77 100q-26 0 -42 -17
t-16 -39q0 -28 17 -43.5t48 -15.5h23q-4 -45 -31 -72q-15 -19 -66 -48l17 -29q45 21 80 59q47 47 47 105z" />
    <glyph glyph-name="lcaron" unicode="&#x13e;" horiz-adv-x="376" 
d="M261 0v32q-25 1 -45 11q-27 11 -27 45v661l-7 7l-181 -11v-32q50 -3 70 -16q27 -20 27 -57v-558q0 -36 -27 -44q-16 -4 -45 -6v-32h235zM387 654q0 100 -77 100q-26 0 -42 -17t-16 -39q0 -28 17 -43.5t48 -15.5h23q-4 -45 -31 -72q-15 -19 -66 -48l17 -29q45 21 80 59
q47 47 47 105z" />
    <glyph glyph-name="Ldot" unicode="&#x13f;" horiz-adv-x="604" 
d="M604 206h-35q-10 -28 -37 -74q-22 -41 -46 -68q-11 -14 -53 -21q-29 -5 -75 -5q-78 0 -95 14q-18 15 -18 78v465q0 40 28 51q39 12 67 12v35h-292v-35q35 -2 65 -18q28 -15 28 -50v-496q0 -37 -28 -50q-18 -6 -65 -9v-35h541zM562 354q0 27 -20 46.5t-47 19.5t-47 -19.5
t-20 -46.5t20 -46.5t47 -19.5t47 19.5t20 46.5z" />
    <glyph glyph-name="ldot" unicode="&#x140;" horiz-adv-x="420" 
d="M261 0v32q-25 1 -45 11q-27 11 -27 45v661l-7 7l-181 -11v-32q50 -3 70 -16q27 -20 27 -57v-558q0 -36 -27 -44q-16 -4 -45 -6v-32h235zM419 328q0 27 -19.5 46.5t-45.5 19.5q-27 0 -46.5 -19.5t-19.5 -46.5t19.5 -46t46.5 -19q26 0 45.5 19t19.5 46z" />
    <glyph glyph-name="Lslash" unicode="&#x141;" horiz-adv-x="604" 
d="M604 206h-35q-10 -28 -37 -74q-22 -41 -46 -68q-11 -14 -53 -21q-29 -5 -75 -5q-78 0 -95 14q-18 15 -18 78v215l149 61l-17 43l-132 -55v201q0 40 28 51q39 12 67 12v35h-292v-35q35 -2 65 -18q28 -15 28 -50v-236l-97 -40l17 -42l80 33v-211q0 -37 -28 -50
q-18 -6 -65 -9v-35h541z" />
    <glyph glyph-name="lslash" unicode="&#x142;" horiz-adv-x="286" 
d="M273 370l-17 40l-67 -29v368l-7 7l-181 -11v-32q50 -3 70 -16q27 -20 27 -57v-293l-84 -35l17 -40l67 29v-219q0 -36 -27 -44q-16 -4 -45 -6v-32h235v32q-25 1 -45 11q-27 11 -27 45v247z" />
    <glyph glyph-name="Nacute" unicode="&#x143;" horiz-adv-x="767" 
d="M759 658v35h-282v-35q18 -2 47 -10q32 -8 45 -18q30 -21 30 -136v-329l-390 528h-197v-35q19 -1 49 -13t47 -27q29 -27 29 -79v-342q0 -69 -7 -96q-6 -27 -23 -41q-7 -7 -39 -16q-32 -8 -45 -9v-35h285v35q-12 0 -47 9q-37 11 -46 20q-31 28 -31 139v357l420 -567h42v507
q0 114 30 135q12 8 40 15q30 8 43 8zM489 818q45 22 45 55q0 17 -13 28t-32 11q-28 0 -56 -31l-128 -126l15 -19l68.5 33l64 30.5t36.5 18.5z" />
    <glyph glyph-name="nacute" unicode="&#x144;" horiz-adv-x="591" 
d="M567 0v32q-24 1 -44 10q-26 11 -26 44v250q0 74 -34.5 116.5t-101.5 42.5q-57 0 -99 -28q-16 -10 -63 -54h-2v67l-7 7l-160 -10v-32q31 -2 49 -12q27 -19 27 -54v-297q0 -37 -27 -44q-11 -4 -44 -6v-32h236v32q-30 2 -47 11q-27 11 -27 44v277q11 23 39 45q43 28 86 28
q35 0 59 -29t24 -78v-248q0 -37 -27 -44q-11 -4 -47 -6v-32h236zM410 713q0 15 -11.5 26.5t-28.5 11.5q-36 0 -62 -43l-38 -59l-61 -91l19 -16l79.5 62l68.5 54q34 25 34 55z" />
    <glyph glyph-name="Ncommaaccent" unicode="&#x145;" horiz-adv-x="767" 
d="M759 658v35h-282v-35q18 -2 47 -10q32 -8 45 -18q30 -21 30 -136v-329l-390 528h-197v-35q19 -1 49 -13t47 -27q29 -27 29 -79v-342q0 -69 -7 -96q-6 -27 -23 -41q-7 -7 -39 -16q-32 -8 -45 -9v-35h285v35q-12 0 -47 9q-37 11 -46 20q-31 28 -31 139v357l420 -567h42v507
q0 114 30 135q12 8 40 15q30 8 43 8zM455 -113q0 36 -20 58.5t-52 22.5q-26 0 -41.5 -14.5t-15.5 -33.5q0 -46 58 -46h27q-1 -31 -20 -45.5t-65 -17.5v-28q59 0 94 26.5t35 77.5z" />
    <glyph glyph-name="ncommaaccent" unicode="&#x146;" horiz-adv-x="591" 
d="M567 0v32q-24 1 -44 10q-26 11 -26 44v250q0 74 -34.5 116.5t-101.5 42.5q-57 0 -99 -28q-16 -10 -63 -54h-2v67l-7 7l-160 -10v-32q31 -2 49 -12q27 -19 27 -54v-297q0 -37 -27 -44q-11 -4 -44 -6v-32h236v32q-30 2 -47 11q-27 11 -27 44v277q11 23 39 45q43 28 86 28
q35 0 59 -29t24 -78v-248q0 -37 -27 -44q-11 -4 -47 -6v-32h236zM378 -113q0 36 -20 58.5t-52 22.5q-26 0 -41.5 -14.5t-15.5 -33.5q0 -46 58 -46h27q-1 -31 -20 -45.5t-65 -17.5v-28q59 0 94 26.5t35 77.5z" />
    <glyph glyph-name="Ncaron" unicode="&#x147;" horiz-adv-x="767" 
d="M759 658v35h-282v-35q18 -2 47 -10q32 -8 45 -18q30 -21 30 -136v-329l-390 528h-197v-35q19 -1 49 -13t47 -27q29 -27 29 -79v-342q0 -69 -7 -96q-6 -27 -23 -41q-7 -7 -39 -16q-32 -8 -45 -9v-35h285v35q-12 0 -47 9q-37 11 -46 20q-31 28 -31 139v357l420 -567h42v507
q0 114 30 135q12 8 40 15q30 8 43 8zM540 896l-24 16l-134 -104l-136 104l-24 -16l116 -140q6 -8 9.5 -11t11.5 -6t21 -3q16 0 24 3t10 5t11 14z" />
    <glyph glyph-name="ncaron" unicode="&#x148;" horiz-adv-x="591" 
d="M567 0v32q-24 1 -44 10q-26 11 -26 44v250q0 74 -34.5 116.5t-101.5 42.5q-57 0 -99 -28q-16 -10 -63 -54h-2v67l-7 7l-160 -10v-32q31 -2 49 -12q27 -19 27 -54v-297q0 -37 -27 -44q-11 -4 -44 -6v-32h236v32q-30 2 -47 11q-27 11 -27 44v277q11 23 39 45q43 28 86 28
q35 0 59 -29t24 -78v-248q0 -37 -27 -44q-11 -4 -47 -6v-32h236zM456 737l-24 16l-136 -133l-134 133l-24 -16l116 -169q7 -10 10 -13t11.5 -6t22.5 -3q19 0 25.5 3.5t15.5 16.5z" />
    <glyph glyph-name="napostrophe" unicode="&#x149;" horiz-adv-x="645" 
d="M621 0v32q-24 1 -44 10q-26 11 -26 44v250q0 74 -34.5 116.5t-101.5 42.5q-57 0 -99 -28q-16 -10 -63 -54h-2v67l-7 7l-160 -10v-32q31 -2 49 -12q27 -19 27 -54v-297q0 -37 -27 -44q-11 -4 -44 -6v-32h236v32q-30 2 -47 11q-27 11 -27 44v277q11 23 39 45q43 28 86 28
q35 0 59 -29t24 -78v-248q0 -37 -27 -44q-11 -4 -47 -6v-32h236zM134 647q0 100 -77 100q-26 0 -42 -17t-16 -39q0 -28 17 -43.5t48 -15.5h23q-4 -45 -31 -72q-15 -19 -66 -48l17 -29q45 21 80 59q47 47 47 105z" />
    <glyph glyph-name="Eng" unicode="&#x14a;" horiz-adv-x="767" 
d="M451 -117q-19 23 -47 23q-24 0 -39 -16.5t-15 -41.5q0 -28 26.5 -46.5t71.5 -18.5q96 0 147 63t51 181v473q0 114 30 135q12 8 40 15q30 8 43 8v35h-282v-35q18 -2 47 -10q32 -8 45 -18q30 -21 30 -136v-329l-390 528h-197v-35q19 -1 49 -13t47 -27q29 -27 29 -79v-342
q0 -69 -7 -96q-6 -27 -23 -41q-7 -7 -39 -16q-32 -8 -45 -9v-35h285v35q-12 0 -47 9q-37 11 -46 20q-31 28 -31 139v357l414 -558q0 -81 -29.5 -124t-81.5 -45q-8 9 -21 28z" />
    <glyph glyph-name="eng" unicode="&#x14b;" horiz-adv-x="579" 
d="M336 -176q-13 23 -31 47q-21 23 -48 23q-21 0 -33.5 -15.5t-12.5 -37.5q0 -25 23 -41.5t65 -16.5q84 0 139 67q58 66 59 178q2 126 2 155q0 38 -1 89.5t-1 63.5q0 74 -34.5 116.5t-101.5 42.5q-57 0 -99 -28q-16 -10 -63 -54h-2v67l-7 7l-160 -10v-32q31 -2 49 -12
q27 -19 27 -54v-297q0 -37 -27 -44q-11 -4 -44 -6v-32h236v32q-30 2 -47 11q-27 11 -27 44v277q11 23 39 45q43 28 86 28q35 0 58.5 -29t24.5 -78q2 -98 2 -151q0 -39 -1 -96t-1 -71q0 -98 -16.5 -143t-52.5 -45z" />
    <glyph glyph-name="Omacron" unicode="&#x14c;" horiz-adv-x="744" 
d="M607 611q-92 98 -235 98q-141 0 -234 -98q-99 -105 -99 -265t94 -260q95 -103 239 -103q140 0 233 98q100 100 100 265q0 162 -98 265zM535 120q-57 -93 -163 -93t-162 91q-53 87 -53 228q0 136 49 221q54 99 166 99q103 0 160 -88q55 -86 55 -232q0 -141 -52 -226z
M540 809v63h-334v-63h334z" />
    <glyph glyph-name="omacron" unicode="&#x14d;" horiz-adv-x="539" 
d="M504 246q0 114 -66 181q-65 68 -166 68q-106 0 -172 -72q-66 -71 -66 -184q0 -114 70 -186q66 -68 161 -68q112 0 177 77q62 73 62 184zM403 245q0 -104 -35.5 -163.5t-96.5 -59.5q-66 0 -104 67q-32 60 -32 158q0 87 29 142q34 69 107 69q68 0 103 -67q29 -54 29 -146z
M437 630v63h-334v-63h334z" />
    <glyph glyph-name="Obreve" unicode="&#x14e;" horiz-adv-x="744" 
d="M607 611q-92 98 -235 98q-141 0 -234 -98q-99 -105 -99 -265t94 -260q95 -103 239 -103q140 0 233 98q100 100 100 265q0 162 -98 265zM535 120q-57 -93 -163 -93t-162 91q-53 87 -53 228q0 136 49 221q54 99 166 99q103 0 160 -88q55 -86 55 -232q0 -141 -52 -226z
M527 904l-27 8q-15 -47 -44.5 -70t-83.5 -23t-83.5 23t-44.5 70l-27 -8q12 -77 51.5 -117t103.5 -40q130 0 155 157z" />
    <glyph glyph-name="obreve" unicode="&#x14f;" horiz-adv-x="539" 
d="M504 246q0 114 -66 181q-65 68 -166 68q-106 0 -172 -72q-66 -71 -66 -184q0 -114 70 -186q66 -68 161 -68q112 0 177 77q62 73 62 184zM403 245q0 -104 -35.5 -163.5t-96.5 -59.5q-66 0 -104 67q-32 60 -32 158q0 87 29 142q34 69 107 69q68 0 103 -67q29 -54 29 -146z
M423 730l-27 6q-15 -55 -41 -81q-29 -31 -85 -31q-54 0 -86 32q-24 25 -40 80l-27 -6q25 -180 153 -180q125 0 153 180z" />
    <glyph glyph-name="Ohungarumlaut" unicode="&#x150;" horiz-adv-x="744" 
d="M607 611q-92 98 -235 98q-141 0 -234 -98q-99 -105 -99 -265t94 -260q95 -103 239 -103q140 0 233 98q100 100 100 265q0 162 -98 265zM535 120q-57 -93 -163 -93t-162 91q-53 87 -53 228q0 136 49 221q54 99 166 99q103 0 160 -88q55 -86 55 -232q0 -141 -52 -226z
M408 819q40 22 40 52q0 16 -12 28.5t-31 12.5q-23 0 -54 -37l-46 -56l-58 -66l14 -17q80 49 94 56zM598 819q40 22 40 52q0 16 -12 28.5t-31 12.5q-23 0 -54 -37l-107 -122l14 -17q80 49 95 56q32 15 55 27z" />
    <glyph glyph-name="ohungarumlaut" unicode="&#x151;" horiz-adv-x="539" 
d="M504 246q0 114 -66 181q-65 68 -166 68q-106 0 -172 -72q-66 -71 -66 -184q0 -114 70 -186q66 -68 161 -68q112 0 177 77q62 73 62 184zM403 245q0 -104 -35.5 -163.5t-96.5 -59.5q-66 0 -104 67q-32 60 -32 158q0 87 29 142q34 69 107 69q68 0 103 -67q29 -54 29 -146z
M502 713q0 15 -11.5 26.5t-28.5 11.5t-28.5 -10t-26.5 -35q-41 -75 -89 -150l17 -14l136 116q31 25 31 55zM321 712q0 15 -11.5 27t-28.5 12q-18 0 -30 -10t-24 -35q-39 -76 -83 -150l18 -14l130 116q17 16 23 27t6 27z" />
    <glyph glyph-name="OE" unicode="&#x152;" horiz-adv-x="998" 
d="M490 42q-15 0 -38 -1t-30 -1q-119 0 -192 85t-73 225q0 152 74 231q67 71 183 71q22 0 76 -2v-608zM594 131v208h73q34 0 52.5 -6t32.5 -24q23 -29 29 -88h36v271h-36q-8 -55 -29 -82q-15 -19 -32 -25t-53 -6h-73v275h104q57 0 84 -4q30 -5 61 -46q32 -41 43 -78h36v167
h-507q-155 0 -257 -83q-119 -94 -119 -259q0 -101 38 -172q41 -81 129 -131q88 -48 192 -48h563l14 204h-36q-6 -23 -31 -70q-27 -51 -47 -71q-14 -15 -64 -21q-15 -2 -85 -2q-77 0 -97 15q-21 14 -21 76z" />
    <glyph glyph-name="oe" unicode="&#x153;" horiz-adv-x="816" 
d="M796 114l-34 21q-23 -48 -52.5 -71t-77.5 -23q-149 0 -153 215h305v35q0 92 -44 145q-51 59 -142 59q-50 0 -93 -26t-68 -68q-26 41 -70.5 67.5t-98.5 26.5q-109 0 -173 -75q-61 -71 -61 -181q0 -113 68 -186q63 -68 157 -68q107 0 174 98q28 -45 74.5 -70.5t101.5 -25.5
q60 0 109.5 33.5t77.5 93.5zM688 297h-209q0 68 31 114q32 47 82 47q58 0 80 -53q16 -34 16 -108zM385 239q0 -217 -122 -217q-66 0 -98 66q-30 58 -30 159q0 87 26 142q34 69 102 69q67 0 98 -66q24 -56 24 -153z" />
    <glyph glyph-name="Racute" unicode="&#x154;" horiz-adv-x="702" 
d="M723 0v35q-36 0 -64 13q-41 21 -73 66l-83 113l-86 114q80 24 121 63q48 44 48 124q0 82 -66 127q-58 38 -152 38h-320v-35q32 -2 65 -12q28 -10 28 -51v-501q0 -37 -28 -50q-18 -6 -65 -9v-35h293v35q-41 0 -68 9q-28 11 -28 50v220h70q65 -83 109 -146l112 -168h187z
M466 517q0 -73 -44.5 -117t-112.5 -44h-64v297h83q66 0 102 -36.5t36 -99.5zM440 818q45 22 45 55q0 17 -13 28t-32 11q-28 0 -56 -31l-128 -126l15 -19l68.5 33l64 30.5t36.5 18.5z" />
    <glyph glyph-name="racute" unicode="&#x155;" horiz-adv-x="410" 
d="M404 419q0 33 -19.5 53.5t-50.5 20.5t-68.5 -21t-66.5 -59h-2v67l-7 7l-160 -10v-32q31 -2 49 -12q27 -19 27 -54v-297q0 -37 -27 -44q-11 -4 -44 -6v-32h254v32q-45 2 -65 11q-27 10 -27 44v280q20 32 50.5 51.5t55.5 19.5q-5 -18 -5 -37q0 -18 15 -31.5t41 -13.5
q23 0 36.5 18.5t13.5 44.5zM340 713q0 15 -11.5 26.5t-28.5 11.5q-36 0 -62 -43l-38 -59l-61 -91l19 -16l79.5 62l68.5 54q34 25 34 55z" />
    <glyph glyph-name="Rcommaaccent" unicode="&#x156;" horiz-adv-x="702" 
d="M723 0v35q-36 0 -64 13q-41 21 -73 66l-83 113l-86 114q80 24 121 63q48 44 48 124q0 82 -66 127q-58 38 -152 38h-320v-35q32 -2 65 -12q28 -10 28 -51v-501q0 -37 -28 -50q-18 -6 -65 -9v-35h293v35q-41 0 -68 9q-28 11 -28 50v220h70q65 -83 109 -146l112 -168h187z
M466 517q0 -73 -44.5 -117t-112.5 -44h-64v297h83q66 0 102 -36.5t36 -99.5zM457 -113q0 36 -20 58.5t-52 22.5q-26 0 -41.5 -14.5t-15.5 -33.5q0 -46 58 -46h27q-1 -31 -20 -45.5t-65 -17.5v-28q59 0 94 26.5t35 77.5z" />
    <glyph glyph-name="rcommaaccent" unicode="&#x157;" horiz-adv-x="410" 
d="M404 419q0 33 -19.5 53.5t-50.5 20.5t-68.5 -21t-66.5 -59h-2v67l-7 7l-160 -10v-32q31 -2 49 -12q27 -19 27 -54v-297q0 -37 -27 -44q-11 -4 -44 -6v-32h254v32q-45 2 -65 11q-27 10 -27 44v280q20 32 50.5 51.5t55.5 19.5q-5 -18 -5 -37q0 -18 15 -31.5t41 -13.5
q23 0 36.5 18.5t13.5 44.5zM257 -113q0 36 -20 58.5t-52 22.5q-26 0 -41.5 -14.5t-15.5 -33.5q0 -46 58 -46h27q-1 -31 -20 -45.5t-65 -17.5v-28q59 0 94 26.5t35 77.5z" />
    <glyph glyph-name="Rcaron" unicode="&#x158;" horiz-adv-x="702" 
d="M723 0v35q-36 0 -64 13q-41 21 -73 66l-83 113l-86 114q80 24 121 63q48 44 48 124q0 82 -66 127q-58 38 -152 38h-320v-35q32 -2 65 -12q28 -10 28 -51v-501q0 -37 -28 -50q-18 -6 -65 -9v-35h293v35q-41 0 -68 9q-28 11 -28 50v220h70q65 -83 109 -146l112 -168h187z
M466 517q0 -73 -44.5 -117t-112.5 -44h-64v297h83q66 0 102 -36.5t36 -99.5zM481 896l-24 16l-134 -104l-136 104l-24 -16l116 -140q6 -8 9.5 -11t11.5 -6t21 -3q16 0 24 3t10 5t11 14z" />
    <glyph glyph-name="rcaron" unicode="&#x159;" horiz-adv-x="410" 
d="M404 419q0 33 -19.5 53.5t-50.5 20.5t-68.5 -21t-66.5 -59h-2v67l-7 7l-160 -10v-32q31 -2 49 -12q27 -19 27 -54v-297q0 -37 -27 -44q-11 -4 -44 -6v-32h254v32q-45 2 -65 11q-27 10 -27 44v280q20 32 50.5 51.5t55.5 19.5q-5 -18 -5 -37q0 -18 15 -31.5t41 -13.5
q23 0 36.5 18.5t13.5 44.5zM366 737l-24 16l-136 -133l-134 133l-24 -16l116 -169q7 -10 10 -13t11.5 -6t22.5 -3q19 0 25.5 3.5t15.5 16.5z" />
    <glyph glyph-name="Sacute" unicode="&#x15a;" horiz-adv-x="561" 
d="M479 318q-38 40 -104 66q-16 7 -63 25t-73 31q-82 39 -82 123q0 43 32.5 73t79.5 30q78 0 125 -62q30 -40 59 -141h40l-4 230h-39l-20 -33q-83 48 -155 48q-88 0 -148 -54q-62 -57 -62 -134q0 -126 124 -181q33 -16 144 -57q45 -18 69 -54t24 -78q0 -57 -31 -88
q-34 -34 -100 -34q-81 0 -138 63q-45 51 -72 146h-39l7 -237h39l21 35q80 -49 173 -49q100 0 168 59q68 60 68 152q0 72 -43 121zM370 818q45 22 45 55q0 17 -13 28t-32 11q-28 0 -56 -31l-128 -126l15 -19l68.5 33l64 30.5t36.5 18.5z" />
    <glyph glyph-name="sacute" unicode="&#x15b;" horiz-adv-x="432" 
d="M353 236q-40 33 -108 54q-71 24 -92 38q-30 19 -30 61q0 29 23.5 49t62.5 20q48 0 82.5 -32.5t44.5 -84.5h34l-8 155h-35l-11 -26q-48 25 -106 25q-74 0 -118 -41t-44 -100t49 -101q39 -31 99 -46q68 -21 92 -39q32 -23 32 -61q0 -40 -25.5 -61t-72.5 -21q-61 0 -105 51
q-39 44 -48 90h-33l5 -167h36l10 31q19 -15 54.5 -29t73.5 -14q79 0 129 42q51 43 51 110q0 60 -42 97zM339 713q0 15 -11.5 26.5t-28.5 11.5q-36 0 -62 -43l-38 -59l-61 -91l19 -16l79.5 62l68.5 54q34 25 34 55z" />
    <glyph glyph-name="Scircumflex" unicode="&#x15c;" horiz-adv-x="561" 
d="M479 318q-38 40 -104 66q-16 7 -63 25t-73 31q-82 39 -82 123q0 43 32.5 73t79.5 30q78 0 125 -62q30 -40 59 -141h40l-4 230h-39l-20 -33q-83 48 -155 48q-88 0 -148 -54q-62 -57 -62 -134q0 -126 124 -181q33 -16 144 -57q45 -18 69 -54t24 -78q0 -57 -31 -88
q-34 -34 -100 -34q-81 0 -138 63q-45 51 -72 146h-39l7 -237h39l21 35q80 -49 173 -49q100 0 168 59q68 60 68 152q0 72 -43 121zM448 751l-116 141q-6 8 -9.5 11t-11.5 6t-21 3q-19 0 -27.5 -4.5t-17.5 -17.5l-115 -139l24 -15l134 103l136 -103z" />
    <glyph glyph-name="scircumflex" unicode="&#x15d;" horiz-adv-x="432" 
d="M353 236q-40 33 -108 54q-71 24 -92 38q-30 19 -30 61q0 29 23.5 49t62.5 20q48 0 82.5 -32.5t44.5 -84.5h34l-8 155h-35l-11 -26q-48 25 -106 25q-74 0 -118 -41t-44 -100t49 -101q39 -31 99 -46q68 -21 92 -39q32 -23 32 -61q0 -40 -25.5 -61t-72.5 -21q-61 0 -105 51
q-39 44 -48 90h-33l5 -167h36l10 31q19 -15 54.5 -29t73.5 -14q79 0 129 42q51 43 51 110q0 60 -42 97zM381 562l-117 171q-8 11 -15 15.5t-26 4.5q-20 0 -27.5 -4.5t-16.5 -17.5l-116 -169l24 -16l134 133l136 -133z" />
    <glyph glyph-name="Scedilla" unicode="&#x15e;" horiz-adv-x="561" 
d="M330 -138q0 -28 -41 -39q-26 -5 -84 -5v-35q88 0 136 18q59 24 59 78q0 39 -37 58q-30 15 -75 15v34q102 0 168 60t66 151q0 72 -43 121q-38 40 -104 66q-16 7 -63 25t-73 31q-82 39 -82 123q0 43 32.5 73t79.5 30q78 0 125 -62q30 -40 59 -141h40l-4 230h-39l-20 -33
q-83 48 -155 48q-88 0 -148 -54q-62 -57 -62 -134q0 -126 124 -181q33 -16 144 -57q45 -18 69 -54t24 -78q0 -57 -31 -88q-34 -34 -100 -34q-81 0 -138 63q-45 51 -72 146h-39l7 -237h39l21 35q63 -37 136 -47v-44v-45q27 0 54 -6q27 -7 27 -31z" />
    <glyph glyph-name="scedilla" unicode="&#x15f;" horiz-adv-x="432" 
d="M256 -138q0 -28 -41 -39q-25 -5 -83 -5v-35q88 0 136 18q59 25 59 78q0 39 -37 58q-31 15 -76 15v36q80 0 130 42q51 42 51 109q0 60 -42 97q-40 33 -108 54q-71 24 -92 38q-30 19 -30 61q0 29 23.5 49t62.5 20q48 0 82.5 -32.5t44.5 -84.5h34l-8 155h-35l-11 -26
q-48 25 -106 25q-74 0 -118 -41t-44 -100t49 -101q39 -31 99 -46q68 -21 92 -39q32 -23 32 -61q0 -40 -25.5 -61t-72.5 -21q-61 0 -105 51q-39 44 -48 90h-33l5 -167h36l10 31q35 -28 89 -39v-47v-45q28 0 53 -6q27 -7 27 -31z" />
    <glyph glyph-name="Scaron" unicode="&#x160;" horiz-adv-x="561" 
d="M479 318q-38 40 -104 66q-16 7 -63 25t-73 31q-82 39 -82 123q0 43 32.5 73t79.5 30q78 0 125 -62q30 -40 59 -141h40l-4 230h-39l-20 -33q-83 48 -155 48q-88 0 -148 -54q-62 -57 -62 -134q0 -126 124 -181q33 -16 144 -57q45 -18 69 -54t24 -78q0 -57 -31 -88
q-34 -34 -100 -34q-81 0 -138 63q-45 51 -72 146h-39l7 -237h39l21 35q80 -49 173 -49q100 0 168 59q68 60 68 152q0 72 -43 121zM444 896l-24 16l-134 -104l-136 104l-24 -16l116 -140q6 -8 9.5 -11t11.5 -6t21 -3q16 0 24 3t10 5t11 14z" />
    <glyph glyph-name="scaron" unicode="&#x161;" horiz-adv-x="432" 
d="M353 236q-40 33 -108 54q-71 24 -92 38q-30 19 -30 61q0 29 23.5 49t62.5 20q48 0 82.5 -32.5t44.5 -84.5h34l-8 155h-35l-11 -26q-48 25 -106 25q-74 0 -118 -41t-44 -100t49 -101q39 -31 99 -46q68 -21 92 -39q32 -23 32 -61q0 -40 -25.5 -61t-72.5 -21q-61 0 -105 51
q-39 44 -48 90h-33l5 -167h36l10 31q19 -15 54.5 -29t73.5 -14q79 0 129 42q51 43 51 110q0 60 -42 97zM379 737l-24 16l-136 -133l-134 133l-24 -16l116 -169q7 -10 10 -13t11.5 -6t22.5 -3q19 0 25.5 3.5t15.5 16.5z" />
    <glyph glyph-name="Tcommaaccent" unicode="&#x162;" horiz-adv-x="619" 
d="M611 505v188h-604v-188h35q10 42 41 87q38 55 65 59q37 4 81 4h28v-559q0 -38 -31 -50q-9 -4 -39 -7q-10 -1 -23.5 -2.5t-17.5 -1.5v-35h327v35q-15 0 -44 6q-27 6 -37 9q-31 15 -31 51v554h29q53 0 80 -4q32 -6 66 -59q32 -48 41 -87h34zM389 -113q0 36 -20 58.5
t-52 22.5q-26 0 -41.5 -14.5t-15.5 -33.5q0 -46 58 -46h27q-1 -31 -20 -45.5t-65 -17.5v-28q59 0 94 26.5t35 77.5z" />
    <glyph glyph-name="tcommaaccent" unicode="&#x163;" horiz-adv-x="345" 
d="M333 21v36q-21 -8 -70 -8t-65 29q-13 22 -13 86v269h137v46h-138v150h-89v-150h-89v-46h87v-327q0 -116 110 -116q52 0 130 31zM282 -113q0 36 -20 58.5t-52 22.5q-26 0 -41.5 -14.5t-15.5 -33.5q0 -46 58 -46h27q-1 -31 -20 -45.5t-65 -17.5v-28q59 0 94 26.5t35 77.5z
" />
    <glyph glyph-name="Tcaron" unicode="&#x164;" horiz-adv-x="619" 
d="M611 505v188h-604v-188h35q10 42 41 87q38 55 65 59q37 4 81 4h28v-559q0 -38 -31 -50q-9 -4 -39 -7q-10 -1 -23.5 -2.5t-17.5 -1.5v-35h327v35q-15 0 -44 6q-27 6 -37 9q-31 15 -31 51v554h29q53 0 80 -4q32 -6 66 -59q32 -48 41 -87h34zM469 896l-24 16l-134 -104
l-136 104l-24 -16l116 -140q6 -8 9.5 -11t11.5 -6t21 -3q16 0 24 3t10 5t11 14z" />
    <glyph glyph-name="tcaron" unicode="&#x165;" horiz-adv-x="345" 
d="M333 21v36q-21 -8 -70 -8t-65 29q-13 22 -13 86v269h137v46h-138v150h-89v-150h-89v-46h87v-327q0 -116 110 -116q52 0 130 31zM388 668q0 93 -78 93q-25 0 -41.5 -17t-16.5 -37q0 -26 17.5 -40t47.5 -14h22q-5 -36 -32 -62q-16 -14 -64 -39l17 -29q46 20 81 51
q47 43 47 94z" />
    <glyph glyph-name="Tbar" unicode="&#x166;" horiz-adv-x="619" 
d="M611 505v188h-604v-188h35q10 42 41 87q38 55 65 59q37 4 81 4h28v-272h-152v-45h152v-242q0 -38 -31 -50q-9 -4 -39 -7q-10 -1 -23.5 -2.5t-17.5 -1.5v-35h327v35q-15 0 -44 6q-27 6 -37 9q-31 15 -31 51v237h152v45h-152v272h29q53 0 80 -4q32 -6 66 -59q32 -48 41 -87
h34z" />
    <glyph glyph-name="tbar" unicode="&#x167;" horiz-adv-x="345" 
d="M333 21v36q-21 -8 -70 -8t-65 29q-13 22 -13 86v72h114v41h-114v156h137v46h-138v150h-89v-150h-89v-46h87v-156h-83v-41h83v-130q0 -116 110 -116q52 0 130 31z" />
    <glyph glyph-name="Utilde" unicode="&#x168;" horiz-adv-x="756" 
d="M749 658v35h-284v-35q22 -2 45 -8q31 -6 47 -19q31 -20 31 -133v-285q0 -65 -37 -113q-47 -62 -147 -62t-142 61q-30 44 -30 115v383q0 40 28 49q31 12 65 12v35h-289v-35q37 -2 63 -16q28 -16 28 -50v-409q0 -83 66 -139q73 -61 193 -61q92 0 163 50q87 60 87 170v301
q0 112 30 132q31 22 83 22zM585 896l-30 12q-18 -39 -26 -48q-12 -18 -50 -18q-9 0 -17.5 2.5t-13.5 5t-15.5 8.5l-15.5 9q-48 25 -84 25q-43 0 -80 -42q-29 -40 -42 -76l29 -12q28 47 30 49q16 17 39 17q18 0 66 -25q42 -25 85 -25t83 42q29 32 42 76z" />
    <glyph glyph-name="utilde" unicode="&#x169;" horiz-adv-x="575" 
d="M551 9v32q-35 0 -48 9q-25 17 -25 48v382l-8 7l-175 -11v-32q54 -2 65 -9q26 -18 26 -50v-273q-13 -24 -38 -43q-37 -28 -83 -28q-35 0 -57.5 27.5t-22.5 77.5v334l-7 7l-161 -11v-32q32 -2 50 -12q26 -18 26 -51v-230q0 -80 33.5 -121.5t97.5 -41.5q59 0 100 27
q28 17 60 51h3v-61l8 -7zM468 716l-30 12q-18 -39 -26 -48q-12 -18 -50 -18q-9 0 -17.5 2.5t-13.5 5t-15.5 8.5l-15.5 9q-48 25 -84 25q-43 0 -80 -42q-29 -40 -42 -76l29 -12q28 47 30 49q16 17 39 17q18 0 66 -25q42 -25 85 -25t83 42q29 32 42 76z" />
    <glyph glyph-name="Umacron" unicode="&#x16a;" horiz-adv-x="756" 
d="M749 658v35h-284v-35q22 -2 45 -8q31 -6 47 -19q31 -20 31 -133v-285q0 -65 -37 -113q-47 -62 -147 -62t-142 61q-30 44 -30 115v383q0 40 28 49q31 12 65 12v35h-289v-35q37 -2 63 -16q28 -16 28 -50v-409q0 -83 66 -139q73 -61 193 -61q92 0 163 50q87 60 87 170v301
q0 112 30 132q31 22 83 22zM563 809v63h-334v-63h334z" />
    <glyph glyph-name="umacron" unicode="&#x16b;" horiz-adv-x="575" 
d="M551 9v32q-35 0 -48 9q-25 17 -25 48v382l-8 7l-175 -11v-32q54 -2 65 -9q26 -18 26 -50v-273q-13 -24 -38 -43q-37 -28 -83 -28q-35 0 -57.5 27.5t-22.5 77.5v334l-7 7l-161 -11v-32q32 -2 50 -12q26 -18 26 -51v-230q0 -80 33.5 -121.5t97.5 -41.5q59 0 100 27
q28 17 60 51h3v-61l8 -7zM445 630v63h-334v-63h334z" />
    <glyph glyph-name="Ubreve" unicode="&#x16c;" horiz-adv-x="756" 
d="M749 658v35h-284v-35q22 -2 45 -8q31 -6 47 -19q31 -20 31 -133v-285q0 -65 -37 -113q-47 -62 -147 -62t-142 61q-30 44 -30 115v383q0 40 28 49q31 12 65 12v35h-289v-35q37 -2 63 -16q28 -16 28 -50v-409q0 -83 66 -139q73 -61 193 -61q92 0 163 50q87 60 87 170v301
q0 112 30 132q31 22 83 22zM554 904l-27 8q-15 -47 -44.5 -70t-83.5 -23t-83.5 23t-44.5 70l-27 -8q12 -77 51.5 -117t103.5 -40q130 0 155 157z" />
    <glyph glyph-name="ubreve" unicode="&#x16d;" horiz-adv-x="575" 
d="M551 9v32q-35 0 -48 9q-25 17 -25 48v382l-8 7l-175 -11v-32q54 -2 65 -9q26 -18 26 -50v-273q-13 -24 -38 -43q-37 -28 -83 -28q-35 0 -57.5 27.5t-22.5 77.5v334l-7 7l-161 -11v-32q32 -2 50 -12q26 -18 26 -51v-230q0 -80 33.5 -121.5t97.5 -41.5q59 0 100 27
q28 17 60 51h3v-61l8 -7zM421 730l-27 6q-15 -55 -41 -81q-29 -31 -85 -31q-54 0 -86 32q-24 25 -40 80l-27 -6q25 -180 153 -180q125 0 153 180z" />
    <glyph glyph-name="Uring" unicode="&#x16e;" horiz-adv-x="756" 
d="M749 658v35h-284v-35q22 -2 45 -8q31 -6 47 -19q31 -20 31 -133v-285q0 -65 -37 -113q-47 -62 -147 -62t-142 61q-30 44 -30 115v383q0 40 28 49q31 12 65 12v35h-289v-35q37 -2 63 -16q28 -16 28 -50v-409q0 -83 66 -139q73 -61 193 -61q92 0 163 50q87 60 87 170v301
q0 112 30 132q31 22 83 22zM521 802q0 48 -35.5 78t-90.5 30q-54 0 -90 -30.5t-36 -77.5q0 -49 34.5 -79t91.5 -30t91.5 30.5t34.5 78.5zM459 802q0 -36 -17 -57t-47 -21t-47 21.5t-17 56.5q0 36 17 56.5t47 20.5q31 0 47.5 -21.5t16.5 -55.5z" />
    <glyph glyph-name="uring" unicode="&#x16f;" horiz-adv-x="575" 
d="M551 9v32q-35 0 -48 9q-25 17 -25 48v382l-8 7l-175 -11v-32q54 -2 65 -9q26 -18 26 -50v-273q-13 -24 -38 -43q-37 -28 -83 -28q-35 0 -57.5 27.5t-22.5 77.5v334l-7 7l-161 -11v-32q32 -2 50 -12q26 -18 26 -51v-230q0 -80 33.5 -121.5t97.5 -41.5q59 0 100 27
q28 17 60 51h3v-61l8 -7zM402 653q0 48 -35.5 78t-90.5 30q-54 0 -90 -30.5t-36 -77.5q0 -49 34.5 -79t91.5 -30t91.5 30.5t34.5 78.5zM340 653q0 -36 -17 -57t-47 -21t-47 21.5t-17 56.5q0 36 17 56.5t47 20.5q31 0 47.5 -21.5t16.5 -55.5z" />
    <glyph glyph-name="Uhungarumlaut" unicode="&#x170;" horiz-adv-x="756" 
d="M749 658v35h-284v-35q22 -2 45 -8q31 -6 47 -19q31 -20 31 -133v-285q0 -65 -37 -113q-47 -62 -147 -62t-142 61q-30 44 -30 115v383q0 40 28 49q31 12 65 12v35h-289v-35q37 -2 63 -16q28 -16 28 -50v-409q0 -83 66 -139q73 -61 193 -61q92 0 163 50q87 60 87 170v301
q0 112 30 132q31 22 83 22zM400 819q40 22 40 52q0 16 -12 28.5t-31 12.5q-23 0 -54 -37l-46 -56l-58 -66l14 -17q80 49 94 56zM590 819q40 22 40 52q0 16 -12 28.5t-31 12.5q-23 0 -54 -37l-107 -122l14 -17q80 49 95 56q32 15 55 27z" />
    <glyph glyph-name="uhungarumlaut" unicode="&#x171;" horiz-adv-x="575" 
d="M551 9v32q-35 0 -48 9q-25 17 -25 48v382l-8 7l-175 -11v-32q54 -2 65 -9q26 -18 26 -50v-273q-13 -24 -38 -43q-37 -28 -83 -28q-35 0 -57.5 27.5t-22.5 77.5v334l-7 7l-161 -11v-32q32 -2 50 -12q26 -18 26 -51v-230q0 -80 33.5 -121.5t97.5 -41.5q59 0 100 27
q28 17 60 51h3v-61l8 -7zM501 713q0 15 -11.5 26.5t-28.5 11.5t-28.5 -10t-26.5 -35q-41 -75 -89 -150l17 -14l136 116q31 25 31 55zM320 712q0 15 -11.5 27t-28.5 12q-18 0 -30 -10t-24 -35q-39 -76 -83 -150l18 -14l130 116q17 16 23 27t6 27z" />
    <glyph glyph-name="Uogonek" unicode="&#x172;" horiz-adv-x="756" 
d="M566 -182q-60 0 -87 21q-22 19 -22 55q0 40 16 68t48 54q13 6 28 17q87 60 87 170v301q0 112 30 132q31 22 83 22v35h-284v-35q22 -2 45 -8q31 -6 47 -19q31 -20 31 -133v-285q0 -65 -37 -113q-47 -62 -147 -62t-142 61q-30 44 -30 115v383q0 40 28 49q31 12 65 12v35
h-289v-35q37 -2 63 -16q28 -16 28 -50v-409q0 -81 66 -139q71 -60 193 -60q33 0 67 7q-73 -56 -73 -113q0 -45 34 -70t96 -25h56v35z" />
    <glyph glyph-name="uogonek" unicode="&#x173;" horiz-adv-x="575" 
d="M425 0q-85 -58 -85 -122q0 -45 34 -70t96 -25h56v35q-60 0 -87 21q-22 19 -22 55q0 62 49 109l85 6v32q-35 0 -48 9q-25 17 -25 48v382l-8 7l-175 -11v-32q54 -2 65 -9q26 -18 26 -50v-273q-13 -24 -38 -43q-37 -28 -83 -28q-35 0 -57.5 27.5t-22.5 77.5v334l-7 7
l-161 -11v-32q32 -2 50 -12q26 -18 26 -51v-230q0 -80 33.5 -121.5t97.5 -41.5q59 0 100 27q28 17 60 51h3v-61l8 -7z" />
    <glyph glyph-name="Wcircumflex" unicode="&#x174;" horiz-adv-x="976" 
d="M990 658v35h-251v-35q96 -7 96 -43q0 -22 -18 -91q-27 -108 -102 -366l-174 525h-48l-173 -514l-85 296l-40 142l-2 11q-2 11 -2 15q0 19 90 25v35h-283v-35q36 -2 58 -17q28 -18 36 -49l69 -246l101 -355h43l182 533l175 -533h45l179 585q14 42 46 63q33 19 58 19z
M676 751l-116 141q-6 8 -9.5 11t-11.5 6t-21 3q-19 0 -27.5 -4.5t-17.5 -17.5l-115 -139l24 -15l134 103l136 -103z" />
    <glyph glyph-name="wcircumflex" unicode="&#x175;" horiz-adv-x="737" 
d="M752 450v31h-183v-31q19 0 38 -8q27 -8 27 -26q0 -8 -9 -44q-12 -42 -41.5 -129.5l-37.5 -112.5l-125 342h-47l-123 -347l-86 279q-6 13 -6 22q0 10 17 15.5t36 5.5v34h-214v-32q22 -2 43 -16t29 -36l62 -186l71 -214h40l131 354l129 -354h42q14 56 34 110l95 281
q10 28 32.5 43.5t45.5 18.5zM557 562l-117 171q-8 11 -15 15.5t-26 4.5q-20 0 -27.5 -4.5t-16.5 -17.5l-116 -169l24 -16l134 133l136 -133z" />
    <glyph glyph-name="Ycircumflex" unicode="&#x176;" horiz-adv-x="615" 
d="M642 658v35h-241v-35q38 -2 61 -8q31 -8 31 -28q0 -23 -158 -276l-62 113l-47 86l-32 61q-11 24 -11 29q0 22 91 23v35h-295v-35q32 -2 57 -16q32 -23 57 -67l62 -113l65 -122q32 -66 32 -75v-168q0 -38 -30 -52q-9 -4 -39 -7q-26 -1 -40 -3v-35h324v35q-40 0 -79 15
q-32 15 -32 52v132q0 36 6 55q5 17 24 50l81 140q30 54 70 109q18 25 26 33t26 19q8 6 26 12t27 6zM490 751l-116 141q-6 8 -9.5 11t-11.5 6t-21 3q-19 0 -27.5 -4.5t-17.5 -17.5l-115 -139l24 -15l134 103l136 -103z" />
    <glyph glyph-name="ycircumflex" unicode="&#x177;" horiz-adv-x="492" 
d="M-1 -157q0 -25 22 -42.5t59 -17.5q40 0 79 35q46 43 102 167l68 163l104 246q10 24 33 39t41 18v30h-179v-31q17 -1 42 -13q23 -11 23 -24q0 -10 -17 -54q-32 -84 -98 -240q-10 27 -59 146l-57 139q-7 19 -7 24q0 8 20 13q21 6 35 6v34h-219v-32q58 -8 75 -51l78 -189
l85 -207q-18 -45 -50 -97q-33 -56 -58 -69q-23 36 -29 41q-21 21 -47 21q-20 0 -33 -15.5t-13 -39.5zM417 562l-117 171q-8 11 -15 15.5t-26 4.5q-20 0 -27.5 -4.5t-16.5 -17.5l-116 -169l24 -16l134 133l136 -133z" />
    <glyph glyph-name="Ydieresis" unicode="&#x178;" horiz-adv-x="615" 
d="M642 658v35h-241v-35q38 -2 61 -8q31 -8 31 -28q0 -23 -158 -276l-62 113l-47 86l-32 61q-11 24 -11 29q0 22 91 23v35h-295v-35q32 -2 57 -16q32 -23 57 -67l62 -113l65 -122q32 -66 32 -75v-168q0 -38 -30 -52q-9 -4 -39 -7q-26 -1 -40 -3v-35h324v35q-40 0 -79 15
q-32 15 -32 52v132q0 36 6 55q5 17 24 50l81 140q30 54 70 109q18 25 26 33t26 19q8 6 26 12t27 6zM494 845q0 25 -16.5 42.5t-40.5 17.5t-41 -17.5t-17 -42.5t17 -42.5t41 -17.5t40.5 17.5t16.5 42.5zM275 845q0 25 -17 42.5t-41 17.5t-40.5 -17.5t-16.5 -42.5t16.5 -42.5
t40.5 -17.5t41 17.5t17 42.5z" />
    <glyph glyph-name="Zacute" unicode="&#x179;" horiz-adv-x="602" 
d="M593 216h-34q-42 -96 -100 -152q-14 -14 -61 -20q-52 -5 -88 -5h-165l436 637v17h-519l-21 -196h34q21 54 61 99q41 47 72 53q26 5 82 5h159l-436 -637v-17h557zM413 818q45 22 45 55q0 17 -13 28t-32 11q-28 0 -56 -31l-128 -126l15 -19l68.5 33l64 30.5t36.5 18.5z" />
    <glyph glyph-name="zacute" unicode="&#x17a;" horiz-adv-x="444" 
d="M417 0v170h-30q-13 -51 -26 -87q-16 -41 -45 -41q-44 -3 -95 -3q-61 0 -84 1l277 421v20h-369v-148h30q18 86 47 98q27 11 110 11h67l-272 -416v-26h390zM357 713q0 15 -11.5 26.5t-28.5 11.5q-36 0 -62 -43l-38 -59l-61 -91l19 -16l79.5 62l68.5 54q34 25 34 55z" />
    <glyph glyph-name="Zdotaccent" unicode="&#x17b;" horiz-adv-x="602" 
d="M593 216h-34q-42 -96 -100 -152q-14 -14 -61 -20q-52 -5 -88 -5h-165l436 637v17h-519l-21 -196h34q21 54 61 99q41 47 72 53q26 5 82 5h159l-436 -637v-17h557zM373 848q0 25 -18 43.5t-45 18.5q-25 0 -43.5 -19.5t-18.5 -46.5q0 -26 18.5 -45t43.5 -19q27 0 45 20
t18 48z" />
    <glyph glyph-name="zdotaccent" unicode="&#x17c;" horiz-adv-x="444" 
d="M417 0v170h-30q-13 -51 -26 -87q-16 -41 -45 -41q-44 -3 -95 -3q-61 0 -84 1l277 421v20h-369v-148h30q18 86 47 98q27 11 110 11h67l-272 -416v-26h390zM290 677q0 25 -18 43.5t-45 18.5q-25 0 -43.5 -19.5t-18.5 -46.5q0 -26 18.5 -45t43.5 -19q27 0 45 20t18 48z" />
    <glyph glyph-name="Zcaron" unicode="&#x17d;" horiz-adv-x="602" 
d="M593 216h-34q-42 -96 -100 -152q-14 -14 -61 -20q-52 -5 -88 -5h-165l436 637v17h-519l-21 -196h34q21 54 61 99q41 47 72 53q26 5 82 5h159l-436 -637v-17h557zM466 896l-24 16l-134 -104l-136 104l-24 -16l116 -140q6 -8 9.5 -11t11.5 -6t21 -3q16 0 24 3t10 5t11 14z
" />
    <glyph glyph-name="zcaron" unicode="&#x17e;" horiz-adv-x="444" 
d="M417 0v170h-30q-13 -51 -26 -87q-16 -41 -45 -41q-44 -3 -95 -3q-61 0 -84 1l277 421v20h-369v-148h30q18 86 47 98q27 11 110 11h67l-272 -416v-26h390zM382 737l-24 16l-136 -133l-134 133l-24 -16l116 -169q7 -10 10 -13t11.5 -6t22.5 -3q19 0 25.5 3.5t15.5 16.5z
" />
    <glyph glyph-name="longs" unicode="&#x17f;" horiz-adv-x="299" 
d="M383 698q0 25 -23 41.5t-64 16.5q-85 0 -142 -68t-57 -175v-431q0 -36 -27 -44q-12 -4 -44 -6v-32h250v32q-32 2 -61 11q-28 10 -28 44v437q0 189 69 191q1 -2 12.5 -19.5t19.5 -26.5q20 -23 48 -23q23 0 35 14.5t12 37.5z" />
    <glyph glyph-name="florin" unicode="&#x192;" horiz-adv-x="519" 
d="M515 568q0 31 -27 50.5t-72 19.5q-85 0 -143 -58q-76 -80 -92 -229h-104v-47h100q-22 -198 -31 -256q-25 -183 -100 -193q-39 84 -85 84q-23 0 -35 -14t-12 -37q0 -30 26.5 -49t72.5 -19q82 0 141 59q67 68 93 228q10 73 23 197h130v47h-126l7 59q11 95 35.5 140.5
t66.5 52.5q38 -86 84 -86q48 0 48 51z" />
    <glyph glyph-name="Aringacute" unicode="&#x1fa;" horiz-adv-x="671" 
d="M694 0v35q-33 0 -60 16q-28 20 -43 54l-207 494q35 9 58.5 35t23.5 65q0 35 -23 61.5t-61 36.5l19.5 7.5l20.5 7.5t17 6q26 10 38.5 22t12.5 33q0 16 -13.5 27.5t-34.5 11.5t-52 -26q-69 -60 -121 -100q-55 -32 -55 -87q0 -40 23.5 -66t60.5 -35l-100 -236l-102 -242
q-20 -45 -53 -67q-23 -16 -63 -18v-35h261v35q-100 6 -100 43q0 16 11 53q6 18 44 109h229l65 -156q4 -7 4 -22q0 -10 -25 -17.5t-64 -9.5v-35h289zM407 283h-193l97 228zM405 699q0 -32 -17 -53t-48 -21q-30 0 -47 21t-17 53q0 31 17.5 51.5t46.5 20.5q31 0 48 -20.5
t17 -51.5z" />
    <glyph glyph-name="aringacute" unicode="&#x1fb;" horiz-adv-x="504" 
d="M491 9v31q-46 0 -55 5q-27 16 -27 50q0 42 1.5 118t1.5 123q0 92 -51 129q-30 24 -68 26q33 11 53.5 39t20.5 62q0 48 -35.5 78t-90.5 30q-54 0 -90 -30.5t-36 -77.5q0 -79 75 -102q-44 -11 -70 -28q-58 -35 -58 -79q0 -24 12.5 -40t35.5 -16q26 0 42 13.5t16 31.5
q0 12 -4.5 35t-4.5 29q23 23 69 23q54 0 78 -44q14 -29 14 -59v-48q-25 -14 -91 -36l-89 -30q-48 -19 -70 -45q-31 -36 -31 -89q0 -54 35 -87t89 -33q90 0 156 72h3q12 -70 90 -70q30 0 79 19zM321 267l-3 -169q-43 -56 -106 -56q-34 0 -54.5 20t-20.5 58q0 58 53 93
q39 26 131 54zM305 592q0 -36 -17 -57t-47 -21q-31 0 -48 21.5t-17 56.5q0 36 17 56.5t48 20.5q30 0 47 -21.5t17 -55.5zM375 861q0 16 -13.5 27.5t-31.5 11.5q-29 0 -57 -31q-41 -44 -127 -126l15 -19q124 59 169 82q45 20 45 55z" />
    <glyph glyph-name="AEacute" unicode="&#x1fc;" horiz-adv-x="971" 
d="M948 204h-35q-9 -26 -32 -70q-27 -51 -47 -71q-14 -15 -64 -21q-15 -2 -84 -2q-76 0 -98 15q-21 16 -21 76v208h73q34 0 52.5 -6t33.5 -24q23 -30 28 -88h37v271h-37q-7 -52 -28 -82q-13 -17 -31.5 -24t-54.5 -7h-73v275h104q57 0 84 -4q30 -5 62 -46q33 -40 42 -78h37
v167h-605v-35q63 -2 83 -11l-299 -528q-28 -48 -59 -66q-28 -16 -63 -18v-35h255v35q-82 4 -82 48q0 19 15 49q30 60 48 93l40 69h234v-200q0 -34 -28 -49q-9 -4 -35 -7l-36 -3v-35h571zM463 337h-211l173 313h38v-313zM695 818q45 22 45 55q0 17 -13 28t-32 11
q-28 0 -56 -31l-128 -126l15 -19l68.5 33l64 30.5t36.5 18.5z" />
    <glyph glyph-name="aeacute" unicode="&#x1fd;" horiz-adv-x="737" 
d="M717 114l-34 21q-22 -47 -52.5 -70.5t-78.5 -23.5q-149 0 -149 227h302v28q0 85 -43 140q-49 59 -143 59q-81 0 -137 -59q-40 59 -152 59q-64 0 -112 -33q-56 -36 -56 -79q0 -24 12 -40t35 -16q26 0 42 13.5t16 31.5q0 12 -4.5 35t-4.5 29q23 23 71 23q50 0 70 -44
q14 -28 14 -59v-52q-63 -20 -70 -22q-42 -12 -105 -37q-47 -21 -68 -45q-30 -36 -30 -93q0 -54 34.5 -87t91.5 -33t99 21.5t80 70.5h3q64 -92 181 -92q60 0 109.5 33.5t78.5 93.5zM608 308h-205q0 62 30 106q32 44 80 44q56 0 79 -51q16 -33 16 -99zM314 95
q-44 -53 -106 -53q-33 0 -52 20t-19 59q0 58 52 95q43 29 125 46v-167zM527 713q0 15 -11.5 26.5t-28.5 11.5q-36 0 -62 -43l-38 -59l-61 -91l19 -16l79.5 62l68.5 54q34 25 34 55z" />
    <glyph glyph-name="Oslashacute" unicode="&#x1fe;" horiz-adv-x="744" 
d="M705 346q0 154 -93 258l77 91l-32 26l-74 -90q-88 79 -211 79q-140 0 -234 -99q-99 -105 -99 -265q0 -156 94 -258l-89 -105l32 -25l85 103q89 -78 211 -78q140 0 233 98q100 100 100 265zM536 574l-348 -420q-32 75 -32 192q0 138 49 221q57 100 167 100q108 0 164 -93z
M536 119q-57 -93 -164 -93t-164 93l349 419q31 -75 31 -192q0 -140 -52 -227zM446 818q45 22 45 55q0 17 -13 28t-32 11q-28 0 -56 -31l-128 -126l15 -19l68.5 33l64 30.5t36.5 18.5z" />
    <glyph glyph-name="oslashacute" unicode="&#x1ff;" horiz-adv-x="539" 
d="M504 246q0 107 -66 178l58 71l-29 22l-54 -69q-59 47 -141 47q-106 0 -172 -72q-66 -71 -66 -184q0 -105 66 -178l-65 -80l28 -21q1 2 21 27l41 50q63 -52 140 -52q112 0 177 77q62 73 62 184zM373 398l-223 -277q-17 56 -17 126q0 87 29 142q36 69 109 69q65 0 102 -60z
M373 88q-38 -66 -102 -66q-68 0 -105 65l223 278q16 -51 16 -120q0 -96 -32 -157zM363 713q0 15 -11.5 26.5t-28.5 11.5q-36 0 -62 -43l-38 -59l-61 -91l19 -16l79.5 62l68.5 54q34 25 34 55z" />
    <glyph glyph-name="circumflex" unicode="&#x2c6;" 
d="M409 562l-117 171q-8 11 -15 15.5t-26 4.5q-20 0 -27.5 -4.5t-16.5 -17.5l-116 -169l24 -16l134 133l136 -133z" />
    <glyph glyph-name="caron" unicode="&#x2c7;" 
d="M409 737l-24 16l-136 -133l-134 133l-24 -16l116 -169q7 -10 10 -13t11.5 -6t22.5 -3q19 0 25.5 3.5t15.5 16.5z" />
    <glyph glyph-name="macron" unicode="&#x2c9;" 
d="M417 630v63h-334v-63h334z" />
    <glyph glyph-name="breve" unicode="&#x2d8;" 
d="M403 730l-27 6q-15 -55 -41 -81q-29 -31 -85 -31q-54 0 -86 32q-24 25 -40 80l-27 -6q25 -180 153 -180q125 0 153 180z" />
    <glyph glyph-name="dotaccent" unicode="&#x2d9;" 
d="M312 677q0 25 -18 43.5t-45 18.5q-25 0 -43.5 -19.5t-18.5 -46.5q0 -26 18.5 -45t43.5 -19q27 0 45 20t18 48z" />
    <glyph glyph-name="ring" unicode="&#x2da;" 
d="M376 653q0 48 -35.5 78t-90.5 30q-54 0 -90 -30.5t-36 -77.5q0 -49 34.5 -79t91.5 -30t91.5 30.5t34.5 78.5zM314 653q0 -36 -17 -57t-47 -21t-47 21.5t-17 56.5q0 36 17 56.5t47 20.5q31 0 47.5 -21.5t16.5 -55.5z" />
    <glyph glyph-name="ogonek" unicode="&#x2db;" 
d="M336 -217v35q-61 0 -87 21q-22 19 -22 55q0 72 67 125h-29q-116 -66 -116 -141q0 -45 34 -70t97 -25h56z" />
    <glyph glyph-name="tilde" unicode="&#x2dc;" 
d="M437 716l-30 12q-18 -39 -26 -48q-12 -18 -50 -18q-9 0 -17.5 2.5t-13.5 5t-15.5 8.5l-15.5 9q-48 25 -84 25q-43 0 -80 -42q-29 -40 -42 -76l29 -12q28 47 30 49q16 17 39 17q18 0 66 -25q42 -25 85 -25t83 42q29 32 42 76z" />
    <glyph glyph-name="hungarumlaut" unicode="&#x2dd;" 
d="M452 713q0 15 -11.5 26.5t-28.5 11.5t-28.5 -10t-26.5 -35q-41 -75 -89 -150l17 -14l136 116q31 25 31 55zM271 712q0 15 -11.5 27t-28.5 12q-18 0 -30 -10t-24 -35q-39 -76 -83 -150l18 -14l130 116q17 16 23 27t6 27z" />
    <glyph glyph-name="tonos" unicode="&#x384;" 
d="M319 751v10h-138v-10q35 -96 54 -195h29q21 106 55 195z" />
    <glyph glyph-name="dieresistonos" unicode="&#x385;" 
d="M314 785v10h-128v-10q28 -81 49 -195h29q27 133 50 195zM441 661q0 25 -16.5 42.5t-40.5 17.5t-40 -17.5t-16 -42.5t16 -42.5t40 -17.5t40.5 17.5t16.5 42.5zM172 661q0 25 -16 42.5t-40 17.5t-40.5 -17.5t-16.5 -42.5t16.5 -42.5t40.5 -17.5t40 17.5t16 42.5z" />
    <glyph glyph-name="Alphatonos" unicode="&#x386;" horiz-adv-x="676" 
d="M699 0v35q-32 0 -60 16q-30 22 -42 54l-231 598h-39l-113 -290l-115 -293q-17 -44 -51 -67q-23 -16 -63 -18v-35h261v35q-100 6 -100 43q0 16 11 55q16 51 37 107h243l58 -156q4 -7 4 -22q0 -10 -25 -17.5t-64 -9.5v-35h289zM420 283h-208l103 269zM153 717v10h-138v-10
q35 -96 54 -195h29q21 106 55 195z" />
    <glyph glyph-name="anoteleia" unicode="&#x387;" horiz-adv-x="312" 
d="M223 417q0 27 -19.5 46.5t-47.5 19.5t-47.5 -19.5t-19.5 -46.5q0 -28 20 -47.5t47 -19.5q28 0 47.5 19.5t19.5 47.5z" />
    <glyph glyph-name="Epsilontonos" unicode="&#x388;" horiz-adv-x="798" 
d="M775 204h-35q-9 -26 -32 -70q-25 -50 -46 -71q-15 -15 -67 -21q-16 -2 -87 -2q-77 0 -97 15q-21 15 -21 76v208h78q61 0 85 -30q24 -32 29 -88h36v271h-36q-8 -55 -29 -82q-13 -18 -31 -24.5t-54 -6.5h-78v275h109q56 0 83 -4q31 -5 62 -46q32 -40 43 -78h36v167h-536
v-35q40 -2 71 -17q28 -13 28 -49v-498q0 -34 -28 -49q-7 -3 -32 -6q-4 -1 -39 -4v-35h575zM138 717v10h-138v-10q35 -96 54 -195h29q21 106 55 195z" />
    <glyph glyph-name="Etatonos" unicode="&#x389;" horiz-adv-x="960" 
d="M910 0v35q-34 0 -63 13q-28 16 -28 50v499q0 40 28 49q31 12 63 12v35h-287v-35q32 -2 64 -17q28 -12 28 -49v-210h-325v215q0 40 27 49q31 12 63 12v35h-287v-35q31 -2 64 -17q29 -12 29 -49v-500q0 -37 -29 -49q-13 -5 -64 -8v-35h287v35q-32 0 -63 13q-27 15 -27 50
v241h325v-247q0 -38 -28 -49q-13 -5 -64 -8v-35h287zM138 717v10h-138v-10q35 -96 54 -195h29q21 106 55 195z" />
    <glyph glyph-name="Iotatonos" unicode="&#x38a;" horiz-adv-x="533" 
d="M494 0v35q-39 0 -73 13q-31 15 -31 49v501q0 39 31 48q34 12 73 12v35h-312v-35q35 -2 73 -17q19 -8 25 -18.5t6 -29.5v-502q0 -35 -31 -48q-15 -5 -73 -8v-35h312zM138 717v10h-138v-10q35 -96 54 -195h29q21 106 55 195z" />
    <glyph glyph-name="Omicrontonos" unicode="&#x38c;" horiz-adv-x="852" 
d="M714 611q-92 98 -235 98q-141 0 -234 -98q-99 -105 -99 -265t94 -260q95 -103 239 -103q140 0 233 98q100 100 100 265q0 162 -98 265zM642 120q-57 -93 -163 -93t-162 91q-53 87 -53 228q0 136 49 221q54 99 166 99q103 0 160 -88q55 -86 55 -232q0 -141 -52 -226z
M138 717v10h-138v-10q35 -96 54 -195h29q21 106 55 195z" />
    <glyph glyph-name="Upsilontonos" unicode="&#x38e;" horiz-adv-x="801" 
d="M828 658v35h-241v-35q38 -2 61 -8q31 -8 31 -28q0 -23 -158 -276l-62 113l-47 86l-32 61q-11 24 -11 29q0 22 91 23v35h-295v-35q32 -2 57 -16q32 -23 57 -67l62 -113l65 -122q32 -66 32 -75v-168q0 -38 -30 -52q-9 -4 -39 -7q-26 -1 -40 -3v-35h324v35q-40 0 -79 15
q-32 15 -32 52v132q0 36 6 55q5 17 24 50l81 140q30 54 70 109q18 25 26 33t26 19q8 6 26 12t27 6zM138 717v10h-138v-10q35 -96 54 -195h29q21 106 55 195z" />
    <glyph glyph-name="Omegatonos" unicode="&#x38f;" horiz-adv-x="876" 
d="M863 189h-34q-16 -42 -32 -67q-22 -36 -55 -36h-111v16q92 103 125 156q50 83 50 178q0 109 -87 190q-91 83 -231 83t-228 -82q-89 -81 -89 -191q0 -98 50 -177q19 -33 56 -77l69 -80v-16h-112q-35 0 -55 36q-10 14 -33 67h-33l33 -189h290v33q-87 126 -106 166
q-41 84 -41 182q0 117 38 186q49 99 161 99q110 0 163 -98q21 -42 28 -93q9 -52 9 -94q0 -91 -41 -181q-23 -48 -106 -167v-33h288zM138 717v10h-138v-10q35 -96 54 -195h29q21 106 55 195z" />
    <glyph glyph-name="iotadieresistonos" unicode="&#x390;" horiz-adv-x="295" 
d="M292 8v32q-22 -2 -32 -2q-33 0 -51.5 17t-18.5 47v378l-6 7l-168 -10v-32q40 -2 59 -14q25 -19 25 -51l-1 -285q0 -105 92 -105q50 0 101 18zM196 785v10h-128v-10q21 -57 50 -195h28q25 122 50 195zM318 661q0 25 -16 42.5t-40 17.5t-40.5 -17.5t-16.5 -42.5t16.5 -42.5
t40.5 -17.5t40 17.5t16 42.5zM60 661q0 25 -16.5 42.5t-40.5 17.5t-40.5 -17.5t-16.5 -42.5t16.5 -42.5t40.5 -17.5t40.5 17.5t16.5 42.5z" />
    <glyph glyph-name="Alpha" unicode="&#x391;" horiz-adv-x="671" 
d="M694 0v35q-32 0 -60 16q-30 22 -42 54l-231 598h-39l-113 -290l-115 -293q-17 -44 -51 -67q-23 -16 -63 -18v-35h261v35q-100 6 -100 43q0 16 11 55q16 51 37 107h243l58 -156q4 -7 4 -22q0 -10 -25 -17.5t-64 -9.5v-35h289zM415 283h-208l103 269z" />
    <glyph glyph-name="Beta" unicode="&#x392;" horiz-adv-x="654" 
d="M539 323q-54 37 -132 47v4q72 15 114 54q50 42 50 114q0 79 -66 118q-55 33 -135 33h-320v-35q32 -2 63 -16q28 -15 28 -50v-498q0 -35 -28 -48q-21 -8 -67 -11v-35h329q94 0 159 46q75 53 75 142q0 86 -70 135zM421 427q-35 -41 -114 -41h-62v266q42 2 79 2
q130 0 130 -122q0 -66 -33 -105zM489 206q0 -82 -38.5 -124.5t-111.5 -42.5q-94 0 -94 62v244q3 0 31.5 1t53.5 1q74 0 116.5 -39t42.5 -102z" />
    <glyph glyph-name="Gamma" unicode="&#x393;" horiz-adv-x="583" 
d="M576 499v194h-534v-35q40 -2 71 -17q28 -13 28 -49v-500q0 -36 -28 -49q-14 -5 -71 -8v-35h311v35q-41 0 -77 14q-31 16 -31 50v555h99q59 0 87 -4q36 -5 70 -62q23 -36 38 -89h37z" />
    <glyph glyph-name="Delta" unicode="&#x394;" horiz-adv-x="661" 
d="M651 0v24l-291 679h-38l-313 -679v-24h642zM514 84h-428l221 484z" />
    <glyph glyph-name="Epsilon" unicode="&#x395;" horiz-adv-x="653" 
d="M630 204h-35q-9 -26 -32 -70q-25 -50 -46 -71q-15 -15 -67 -21q-16 -2 -87 -2q-77 0 -97 15q-21 15 -21 76v208h78q61 0 85 -30q24 -32 29 -88h36v271h-36q-8 -55 -29 -82q-13 -18 -31 -24.5t-54 -6.5h-78v275h109q56 0 83 -4q31 -5 62 -46q32 -40 43 -78h36v167h-536
v-35q40 -2 71 -17q28 -13 28 -49v-498q0 -34 -28 -49q-7 -3 -32 -6q-4 -1 -39 -4v-35h575z" />
    <glyph glyph-name="Zeta" unicode="&#x396;" horiz-adv-x="602" 
d="M593 216h-34q-42 -96 -100 -152q-14 -14 -61 -20q-52 -5 -88 -5h-165l436 637v17h-519l-21 -196h34q21 54 61 99q41 47 72 53q26 5 82 5h159l-436 -637v-17h557z" />
    <glyph glyph-name="Eta" unicode="&#x397;" horiz-adv-x="815" 
d="M765 0v35q-34 0 -63 13q-28 16 -28 50v499q0 40 28 49q31 12 63 12v35h-287v-35q32 -2 64 -17q28 -12 28 -49v-210h-325v215q0 40 27 49q31 12 63 12v35h-287v-35q31 -2 64 -17q29 -12 29 -49v-500q0 -37 -29 -49q-13 -5 -64 -8v-35h287v35q-32 0 -63 13q-27 15 -27 50
v241h325v-247q0 -38 -28 -49q-13 -5 -64 -8v-35h287z" />
    <glyph glyph-name="Theta" unicode="&#x398;" horiz-adv-x="744" 
d="M607 611q-92 98 -235 98q-141 0 -234 -98q-99 -105 -99 -265t94 -260q95 -103 239 -103q140 0 233 98q100 100 100 265q0 162 -98 265zM536 119q-57 -92 -164 -92q-106 0 -163 91q-53 83 -53 228q0 136 49 221q58 99 167 99q103 0 161 -88q55 -84 55 -232
q0 -140 -52 -227zM511 235v222h-32q-7 -35 -21 -58q-9 -15 -86 -15q-47 0 -64 3t-22 12q-14 19 -20 58h-33v-222h33q7 41 20 59q6 9 21.5 12t64.5 3q77 0 86 -15q14 -18 21 -59h32z" />
    <glyph glyph-name="Iota" unicode="&#x399;" horiz-adv-x="390" 
d="M351 0v35q-39 0 -73 13q-31 15 -31 49v501q0 39 31 48q34 12 73 12v35h-312v-35q35 -2 73 -17q19 -8 25 -18.5t6 -29.5v-502q0 -35 -31 -48q-15 -5 -73 -8v-35h312z" />
    <glyph glyph-name="Kappa" unicode="&#x39a;" horiz-adv-x="694" 
d="M720 0v35q-37 0 -63 13q-45 25 -78 66l-104 129q-40 52 -122 145q61 57 213 230q24 24 65 33q28 5 32 6h6t5 0.5t4 0.5h2v35h-260v-35q21 0 42 -5q30 -7 30 -19q0 -20 -16.5 -46t-57.5 -72q-73 -83 -164 -158h-9v239q0 40 28 49q31 12 64 12v35h-287v-35q31 -2 63 -17
q28 -15 28 -49v-500q0 -36 -28 -49q-14 -5 -63 -8v-35h287v35q-28 0 -64 13q-28 15 -28 50v241h12q161 -173 269 -339h194z" />
    <glyph glyph-name="Lambda" unicode="&#x39b;" horiz-adv-x="674" 
d="M697 0v35q-33 0 -60 16q-30 22 -42 54l-233 598h-39l-111 -284l-118 -299q-17 -44 -51 -67q-23 -16 -63 -18v-35h261v35q-100 7 -100 43q0 21 11 55q19 57 65 174l94 244l181 -467q4 -7 4 -22q0 -21 -88 -27v-35h289z" />
    <glyph glyph-name="Mu" unicode="&#x39c;" horiz-adv-x="927" 
d="M882 0v35q-45 0 -67 13q-28 15 -28 50v499q0 40 28 49q31 12 66 12v35h-226q-3 -30 -23 -85l-170 -435l-198 520h-236v-35q54 -2 80 -27q29 -24 29 -82v-354q0 -68 -7 -95q-6 -28 -23 -42q-18 -16 -84 -23v-35h280v35q-9 0 -44 9q-35 11 -44 20q-31 28 -31 136v414h6
l226 -603h24l236 591h8v-504q0 -32 -30 -52q-10 -5 -36 -8t-42 -3v-35h306z" />
    <glyph glyph-name="Nu" unicode="&#x39d;" horiz-adv-x="767" 
d="M759 658v35h-282v-35q18 -2 47 -10q32 -8 45 -18q30 -21 30 -136v-329l-390 528h-197v-35q19 -1 49 -13t47 -27q29 -27 29 -79v-342q0 -69 -7 -96q-6 -27 -23 -41q-7 -7 -39 -16q-32 -8 -45 -9v-35h285v35q-12 0 -47 9q-37 11 -46 20q-31 28 -31 139v357l420 -567h42v507
q0 114 30 135q12 8 40 15q30 8 43 8z" />
    <glyph glyph-name="Xi" unicode="&#x39e;" horiz-adv-x="693" 
d="M622 483l-13 210h-525l-13 -210h34q2 5 12 35.5t18 44.5q24 44 65 44q17 0 64.5 1t80.5 1q23 0 149 -2q24 -1 38 -11t27 -33q3 -6 29 -80h34zM501 229v234h-34q-7 -38 -20 -60q-10 -18 -100 -18t-100 18q-14 22 -21 60h-34v-234h34q8 41 21 61q10 18 100 18t100 -18
q14 -23 20 -61h34zM637 211h-34q-22 -61 -35 -80q-27 -43 -69 -44q-120 -2 -154 -2q-27 0 -77 1t-73 1q-41 0 -70 44q-17 29 -34 80h-34l23 -211h534z" />
    <glyph glyph-name="Omicron" unicode="&#x39f;" horiz-adv-x="744" 
d="M607 611q-92 98 -235 98q-141 0 -234 -98q-99 -105 -99 -265t94 -260q95 -103 239 -103q140 0 233 98q100 100 100 265q0 162 -98 265zM535 120q-57 -93 -163 -93t-162 91q-53 87 -53 228q0 136 49 221q54 99 166 99q103 0 160 -88q55 -86 55 -232q0 -141 -52 -226z" />
    <glyph glyph-name="Pi" unicode="&#x3a0;" horiz-adv-x="808" 
d="M758 0v35q-32 0 -63 13q-28 16 -28 50v499q0 40 28 49q31 12 63 12v35h-710v-35q31 -2 64 -17q29 -12 29 -49v-500q0 -37 -29 -49q-13 -5 -64 -8v-35h287v35q-32 0 -63 13q-27 15 -27 50v551h318v-557q0 -38 -28 -49q-13 -5 -64 -8v-35h287z" />
    <glyph glyph-name="Rho" unicode="&#x3a1;" horiz-adv-x="610" 
d="M578 522q0 78 -60 124q-61 47 -157 47h-317v-35q38 -2 69 -12q28 -10 28 -52v-500q0 -37 -28 -50q-18 -6 -65 -9v-35h297v35q-45 0 -72 9q-28 11 -28 50v210h77q104 0 176 53q80 56 80 165zM430 404q-40 -57 -136 -57h-49v306h68q79 0 115 -49q29 -39 29 -106
q0 -54 -27 -94z" />
    <glyph glyph-name="Sigma" unicode="&#x3a3;" horiz-adv-x="604" 
d="M586 216h-34q-23 -64 -35 -83q-29 -47 -69 -47h-319l254 281v8l-217 279h151q61 0 86 -5q33 -5 63 -48q30 -42 41 -92h35v184h-522v-17l271 -348l-279 -311v-17h551z" />
    <glyph glyph-name="Tau" unicode="&#x3a4;" horiz-adv-x="619" 
d="M611 505v188h-604v-188h35q10 42 41 87q38 55 65 59q37 4 81 4h28v-559q0 -38 -31 -50q-9 -4 -39 -7q-10 -1 -23.5 -2.5t-17.5 -1.5v-35h327v35q-15 0 -44 6q-27 6 -37 9q-31 15 -31 51v554h29q53 0 80 -4q32 -6 66 -59q32 -48 41 -87h34z" />
    <glyph glyph-name="Upsilon" unicode="&#x3a5;" horiz-adv-x="615" 
d="M642 658v35h-241v-35q38 -2 61 -8q31 -8 31 -28q0 -23 -158 -276l-62 113l-47 86l-32 61q-11 24 -11 29q0 22 91 23v35h-295v-35q32 -2 57 -16q32 -23 57 -67l62 -113l65 -122q32 -66 32 -75v-168q0 -38 -30 -52q-9 -4 -39 -7q-26 -1 -40 -3v-35h324v35q-40 0 -79 15
q-32 15 -32 52v132q0 36 6 55q5 17 24 50l81 140q30 54 70 109q18 25 26 33t26 19q8 6 26 12t27 6z" />
    <glyph glyph-name="Phi" unicode="&#x3a6;" horiz-adv-x="767" 
d="M179 226q-31 54 -31 123q0 83 35 136q43 68 129 68h21v-407q-107 0 -154 80zM587 226q-47 -80 -153 -80v407h21q87 0 129 -68q34 -51 34 -136q0 -70 -31 -123zM647 171q87 71 87 190q0 99 -70 162q-77 68 -226 68h-4v18q0 36 28 47q22 8 66 10v34h-289v-34q36 -2 66 -16
q28 -11 28 -46v-13h-5q-151 0 -225 -68q-70 -60 -70 -162q0 -119 85 -190q82 -64 215 -64v-22q0 -34 -28 -46q-16 -7 -65 -10v-34h293v34q-52 2 -71 10q-28 10 -28 46v22q130 0 213 64z" />
    <glyph glyph-name="Chi" unicode="&#x3a7;" horiz-adv-x="710" 
d="M711 0v35q-45 0 -65 10q-35 24 -66 69l-179 262l79 107l72 95q3 3 9.5 12t8.5 11.5l7.5 9t8 9t7.5 7t9 7l9.5 6t12.5 6.5q29 12 64 12v35h-258v-35q44 -2 62 -9t18 -23q0 -19 -40 -78l-95 -135l-89 137q-41 64 -41 82q0 13 30 19q28 5 59 7v35h-321v-35q45 -3 66 -12
q20 -9 31.5 -21.5t33.5 -44.5l166 -242l-87 -117l-80 -107q-35 -47 -72 -67q-19 -9 -65 -12v-35h259v35q-49 2 -64.5 9t-15.5 24q0 14 54 94q70 100 98 136l56.5 -87t43.5 -67q40 -64 40 -82q0 -25 -90 -27v-35h324z" />
    <glyph glyph-name="Psi" unicode="&#x3a8;" horiz-adv-x="875" 
d="M859 658v35h-195v-248q0 -79 -34 -124q-43 -56 -141 -61v337q0 40 28 49q29 12 61 12v35h-283v-35q29 -2 62 -17q28 -12 28 -49v-332q-94 4 -140 60q-35 48 -35 125v248h-194v-35q33 -2 62 -16q28 -16 28 -50v-138q0 -118 78 -178q69 -52 201 -57v-122q0 -38 -31 -52
q-9 -4 -37 -7q-25 -2 -39 -3v-35h319v35q-9 0 -41 5q-29 6 -35 10q-32 15 -32 52v117q132 5 202 57q78 57 78 178v143q0 40 27 49q25 9 63 12z" />
    <glyph glyph-name="Omega" unicode="&#x3a9;" horiz-adv-x="779" 
d="M765 189h-34q-16 -42 -32 -67q-22 -36 -55 -36h-111v16q92 103 125 156q50 83 50 178q0 109 -87 190q-91 83 -231 83t-228 -82q-89 -81 -89 -191q0 -98 50 -177q19 -33 56 -77l69 -80v-16h-112q-35 0 -55 36q-10 14 -33 67h-33l33 -189h290v33q-87 126 -106 166
q-41 84 -41 182q0 117 38 186q49 99 161 99q110 0 163 -98q21 -42 28 -93q9 -52 9 -94q0 -91 -41 -181q-23 -48 -106 -167v-33h288z" />
    <glyph glyph-name="Iotadieresis" unicode="&#x3aa;" horiz-adv-x="390" 
d="M351 0v35q-39 0 -73 13q-31 15 -31 49v501q0 39 31 48q34 12 73 12v35h-312v-35q35 -2 73 -17q19 -8 25 -18.5t6 -29.5v-502q0 -35 -31 -48q-15 -5 -73 -8v-35h312zM358 845q0 25 -17 42.5t-41 17.5t-41 -17.5t-17 -42.5t17 -42.5t41 -17.5t41 17.5t17 42.5zM148 845
q0 25 -17 42.5t-41 17.5t-41 -17.5t-17 -42.5t17 -42.5t41 -17.5t41 17.5t17 42.5z" />
    <glyph glyph-name="Upsilondieresis" unicode="&#x3ab;" horiz-adv-x="615" 
d="M642 658v35h-241v-35q38 -2 61 -8q31 -8 31 -28q0 -23 -158 -276l-62 113l-47 86l-32 61q-11 24 -11 29q0 22 91 23v35h-295v-35q32 -2 57 -16q32 -23 57 -67l62 -113l65 -122q32 -66 32 -75v-168q0 -38 -30 -52q-9 -4 -39 -7q-26 -1 -40 -3v-35h324v35q-40 0 -79 15
q-32 15 -32 52v132q0 36 6 55q5 17 24 50l81 140q30 54 70 109q18 25 26 33t26 19q8 6 26 12t27 6zM494 845q0 25 -16.5 42.5t-40.5 17.5t-41 -17.5t-17 -42.5t17 -42.5t41 -17.5t40.5 17.5t16.5 42.5zM275 845q0 25 -17 42.5t-41 17.5t-40.5 -17.5t-16.5 -42.5t16.5 -42.5
t40.5 -17.5t41 17.5t17 42.5z" />
    <glyph glyph-name="alphatonos" unicode="&#x3ac;" horiz-adv-x="598" 
d="M600 9v32q-56 0 -65 5q-50 31 -55 182q36 185 42 253h-91l-12 -93q-19 51 -60 79t-98 28q-95 0 -159 -72q-67 -75 -67 -182q0 -115 62 -185q61 -70 144 -70q54 0 103 33q38 27 70 79q8 -60 28.5 -84t62.5 -24q43 0 95 19zM404 255q-10 -217 -131 -217q-68 0 -104 61
q-32 56 -32 136q0 102 37.5 162t96.5 60q63 0 99 -64q27 -52 34 -138zM346 751v10h-138v-10q35 -96 54 -195h29q21 106 55 195z" />
    <glyph glyph-name="epsilontonos" unicode="&#x3ad;" horiz-adv-x="468" 
d="M459 123l-34 21q-58 -108 -163 -108q-55 0 -88 25.5t-33 73.5q0 42 21 64q28 30 86 30h53v45h-41q-56 0 -80 23t-24 75q0 35 26 60.5t69 25.5q54 0 79 -21q-10 -63 -10 -70q0 -18 16 -31.5t43 -13.5q49 0 49 60q0 52 -47 82.5t-131 30.5q-99 0 -150 -44q-42 -36 -42 -80
q0 -42 23 -67q29 -34 98 -47v-5q-53 -2 -92 -29q-46 -35 -46 -95q0 -69 64 -108q57 -34 144 -34q144 0 210 137zM317 751v10h-138v-10q35 -96 54 -195h29q21 106 55 195z" />
    <glyph glyph-name="etatonos" unicode="&#x3ae;" horiz-adv-x="571" 
d="M490 -217v553q0 74 -35.5 116.5t-102.5 42.5q-56 0 -98 -28q-18 -11 -63 -54h-2v67l-7 7l-160 -10v-32q31 -2 49 -12q27 -18 27 -54v-379h91v364q15 26 40 44q38 29 83 29q37 0 61.5 -28.5t24.5 -78.5v-547h92zM354 751v10h-138v-10q35 -96 54 -195h29q21 106 55 195z
" />
    <glyph glyph-name="iotatonos" unicode="&#x3af;" horiz-adv-x="295" 
d="M292 8v32q-22 -2 -32 -2q-33 0 -51.5 17t-18.5 47v378l-6 7l-168 -10v-32q40 -2 59 -14q25 -19 25 -51l-1 -285q0 -105 92 -105q50 0 101 18zM209 751v10h-138v-10q35 -96 54 -195h29q21 106 55 195z" />
    <glyph glyph-name="upsilondieresistonos" unicode="&#x3b0;" horiz-adv-x="541" 
d="M441 83q58 88 58 227q0 68 -17 119q-21 61 -75 61q-23 0 -38.5 -14t-15.5 -33q0 -40 46 -79q48 -38 48 -114q0 -92 -42 -150q-40 -58 -107 -58q-48 0 -69 19q-39 30 -38 111l2 203q0 60 -20.5 86.5t-69.5 26.5q-39 0 -100 -28v-31q36 4 48 4q48 0 48 -53l-1 -228
q0 -85 53 -127q46 -39 122 -39q104 0 168 97zM335 785v10h-128v-10q28 -81 49 -195h29q27 133 50 195zM462 661q0 25 -16.5 42.5t-40.5 17.5t-40 -17.5t-16 -42.5t16 -42.5t40 -17.5t40.5 17.5t16.5 42.5zM193 661q0 25 -16 42.5t-40 17.5t-40.5 -17.5t-16.5 -42.5
t16.5 -42.5t40.5 -17.5t40 17.5t16 42.5z" />
    <glyph glyph-name="alpha" unicode="&#x3b1;" horiz-adv-x="598" 
d="M600 9v32q-56 0 -65 5q-50 31 -55 182q36 185 42 253h-91l-12 -93q-19 51 -60 79t-98 28q-95 0 -159 -72q-67 -75 -67 -182q0 -115 62 -185q61 -70 144 -70q54 0 103 33q38 27 70 79q8 -60 28.5 -84t62.5 -24q43 0 95 19zM404 255q-10 -217 -131 -217q-68 0 -104 61
q-32 56 -32 136q0 102 37.5 162t96.5 60q63 0 99 -64q27 -52 34 -138z" />
    <glyph glyph-name="beta" unicode="&#x3b2;" horiz-adv-x="565" 
d="M465 389q-47 42 -109 48l-2 4q52 6 93 42q51 42 51 114q0 81 -58 121q-51 39 -133 39q-101 0 -160 -64q-42 -45 -52 -87q-11 -46 -11 -116v-707h91v238h4q47 -33 118 -33q100 0 165 71q66 72 66 176q0 97 -63 154zM426 233q0 -96 -37 -152.5t-100 -56.5q-40 0 -71 23
t-43 55v415q0 109 37 159q33 44 91 44q48 0 77 -33.5t29 -92.5q0 -68 -41 -106q-31 -31 -84 -31h-34v-46h46q73 0 105 -52q25 -41 25 -126z" />
    <glyph glyph-name="gamma" unicode="&#x3b3;" horiz-adv-x="514" 
d="M316 -110q0 10 -15 136q16 43 38 87.5t56.5 108.5t40.5 76q49 100 49 139q0 28 -15 43t-41 15q-25 0 -41.5 -17t-16.5 -40q0 -11 7.5 -50t7.5 -60q0 -25 -24 -80q-7 -17 -34 -71q-23 -47 -39 -88q-3 32 -23 94q-17 53 -38 105l-43.5 100.5t-38.5 91.5l-7 7l-145 -10v-32
q32 -2 51.5 -12.5t31.5 -34.5l85 -196q38 -87 74 -195q-24 -89 -24 -160q0 -64 51 -64q23 0 37 16q16 27 16 91z" />
    <glyph glyph-name="delta" unicode="&#x3b4;" horiz-adv-x="539" 
d="M504 235q0 87 -34 139q-37 59 -139 114q-90 49 -122 75q-33 29 -33 68q0 36 32 62.5t79 26.5q62 0 86 -20q-1 -3 -4.5 -17t-5.5 -26.5t-2 -24.5q0 -19 15.5 -32t43.5 -13q50 0 50 61q0 49 -50.5 79t-134.5 30q-103 0 -159 -44q-47 -38 -47 -88q0 -52 38 -86.5t126 -65.5
v-3q-93 -15 -148 -74q-61 -67 -61 -163q0 -106 65 -176q64 -72 171 -72q102 0 169 73q65 70 65 177zM403 231q0 -89 -33 -146q-37 -63 -101 -63q-61 0 -100 63q-33 56 -33 146q0 97 39.5 153.5t103.5 56.5q124 -40 124 -210z" />
    <glyph glyph-name="epsilon" unicode="&#x3b5;" horiz-adv-x="468" 
d="M459 123l-34 21q-58 -108 -163 -108q-55 0 -88 25.5t-33 73.5q0 42 21 64q28 30 86 30h53v45h-41q-56 0 -80 23t-24 75q0 35 26 60.5t69 25.5q54 0 79 -21q-10 -63 -10 -70q0 -18 16 -31.5t43 -13.5q49 0 49 60q0 52 -47 82.5t-131 30.5q-99 0 -150 -44q-42 -36 -42 -80
q0 -42 23 -67q29 -34 98 -47v-5q-53 -2 -92 -29q-46 -35 -46 -95q0 -69 64 -108q57 -34 144 -34q144 0 210 137z" />
    <glyph glyph-name="zeta" unicode="&#x3b6;" horiz-adv-x="404" 
d="M437 661v45q-152 -10 -192 -10q-7 0 -12.5 0.5t-10.5 2.5t-8 3t-8 4.5t-7 4.5t-8 6.5t-7 6.5q-35 28 -68 28q-23 0 -34.5 -13.5t-11.5 -33.5q0 -54 95 -54l179 2v-5q-154 -131 -217 -217q-85 -116 -85 -228q0 -85 54 -141t139 -57q48 -2 49 -2q45 -2 66 -18.5t21 -51.5
q0 -40 -29 -66q-21 -20 -52 -22q-8 4 -23.5 16.5t-16.5 13.5q-23 17 -44 17q-47 0 -47 -43q0 -49 94 -49q74 0 124 50t50 109q0 56 -31.5 88.5t-90.5 33.5q-5 0 -18 1t-20 1q-58 2 -92 34q-38 36 -38 112q0 123 90 239q77 98 210 193z" />
    <glyph glyph-name="eta" unicode="&#x3b7;" horiz-adv-x="571" 
d="M490 -217v553q0 74 -35.5 116.5t-102.5 42.5q-56 0 -98 -28q-18 -11 -63 -54h-2v67l-7 7l-160 -10v-32q31 -2 49 -12q27 -18 27 -54v-379h91v364q15 26 40 44q38 29 83 29q37 0 61.5 -28.5t24.5 -78.5v-547h92z" />
    <glyph glyph-name="theta" unicode="&#x3b8;" horiz-adv-x="556" 
d="M463 628q-60 129 -185 129t-185 -129q-50 -104 -50 -257q0 -151 51 -257q60 -129 184 -129q121 0 184 129q51 103 51 258q0 153 -50 256zM413 406h-269q0 166 39 244q34 70 95 70q59 0 95 -70q39 -79 40 -244zM373 93q-33 -71 -95 -71t-96 70q-38 81 -38 254v17h269v-17
q0 -170 -40 -253z" />
    <glyph glyph-name="iota" unicode="&#x3b9;" horiz-adv-x="295" 
d="M292 8v32q-22 -2 -32 -2q-33 0 -51.5 17t-18.5 47v378l-6 7l-168 -10v-32q40 -2 59 -14q25 -19 25 -51l-1 -285q0 -105 92 -105q50 0 101 18z" />
    <glyph glyph-name="kappa" unicode="&#x3ba;" horiz-adv-x="536" 
d="M546 15v31q-28 -4 -45 -4q-46 0 -92 70q-21 33 -112 197q13 13 29.5 33t28.5 33t24 21q54 -21 71 -21q24 0 39.5 15.5t15.5 37.5q0 28 -16 44.5t-43 16.5q-24 0 -44 -12.5t-49 -45.5q-47 -50 -164 -197v246l-7 7l-160 -10v-32q31 -2 49 -12q27 -19 27 -54v-379h91v186
l48 53l94 -176q27 -48 53 -62q17 -10 55 -10q51 0 107 24z" />
    <glyph glyph-name="lambda" unicode="&#x3bb;" horiz-adv-x="488" 
d="M164 645q42 -69 68 -163l-238 -482h111q13 44 31 81l67 141q36 79 74 153q21 -72 46 -167t30 -111q20 -61 29 -76q20 -31 56 -31q30 0 85 19v31h-22q-33 0 -47 15t-33 63q-2 6 -97 268l-95 263q-20 57 -47.5 82.5t-67.5 25.5q-30 0 -48 -17t-18 -40q0 -20 14 -36t37 -17
q6 -1 30.5 -1.5t34.5 -0.5z" />
    <glyph glyph-name="mu" unicode="&#x3bc;" horiz-adv-x="579" 
d="M568 9v32q-48 0 -60 5q-27 13 -27 53v382h-93v-368q-9 -20 -38 -42q-38 -26 -84 -26q-37 0 -62.5 29.5t-25.5 76.5v330h-93v-415q0 -46 -5 -92q-3 -23 -12 -71q-8 -50 -8 -71q0 -23 13.5 -36t34.5 -13q20 0 37.5 14t17.5 37q0 16 -13 77q-12 74 -12 90v28h3
q12 -16 38 -27.5t53 -11.5q57 0 95 23q19 10 59 53h3q13 -75 94 -75q34 0 85 18z" />
    <glyph glyph-name="nu" unicode="&#x3bd;" horiz-adv-x="501" 
d="M143 487l-150 -10v-32q64 -5 81 -47l80 -206l75 -196h42q37 94 47 112l100 191q8 17 35 69q22 40 22 72q0 55 -54 55q-24 0 -42 -17.5t-18 -39.5q0 -27 4 -47q5 -23 5 -62q0 -25 -24 -81l-65 -135l-56 144l-55 147q-10 26 -21 76z" />
    <glyph glyph-name="xi" unicode="&#x3be;" horiz-adv-x="441" 
d="M420 710q-19 -1 -109 -5q-62 -3 -113 -3q-8 0 -15 1t-11 2t-10.5 5t-8 5t-9.5 7t-9 7q-35 28 -68 28q-44 0 -44 -47q0 -49 89 -49q16 0 54 1.5t51 1.5v-8q-67 -21 -99 -50q-44 -39 -44 -95q0 -52 39 -88t113 -48v-3q-73 -8 -126 -57q-60 -54 -60 -134q0 -76 53 -127
q54 -51 138 -51h76q88 0 88 -70q0 -40 -29 -66q-20 -20 -52 -22q-8 4 -23.5 16.5t-16.5 13.5q-23 17 -44 17q-47 0 -47 -43q0 -49 94 -49q71 0 123 50q52 49 52 109q0 57 -32 89.5t-91 32.5h-65q-61 0 -95 32.5t-34 91.5q0 138 163 138h96v52h-71q-70 0 -111.5 30.5
t-41.5 87.5q0 75 61 112q50 30 126 30h63v55z" />
    <glyph glyph-name="omicron" unicode="&#x3bf;" horiz-adv-x="539" 
d="M504 246q0 114 -66 181q-65 68 -166 68q-106 0 -172 -72q-66 -71 -66 -184q0 -114 70 -186q66 -68 161 -68q112 0 177 77q62 73 62 184zM403 245q0 -104 -35.5 -163.5t-96.5 -59.5q-66 0 -104 67q-32 60 -32 158q0 87 29 142q34 69 107 69q68 0 103 -67q29 -54 29 -146z
" />
    <glyph glyph-name="pi" unicode="&#x3c0;" horiz-adv-x="601" 
d="M146 85q-52 14 -60 14q-23 0 -37 -16t-14 -36q0 -23 14.5 -40.5t41.5 -17.5q67 0 111 106q22 55 32 124q11 75 11 132q0 15 -0.5 39t-0.5 31h128v-326q0 -105 93 -105q52 0 103 18v32q-18 -2 -33 -2q-35 0 -53 17t-18 47v319h110v60h-419q-55 0 -83 -35q-28 -29 -28 -66
q0 -34 4 -57h31q5 47 19 67q21 31 68 31h30q2 -34 2 -66q0 -158 -52 -270z" />
    <glyph glyph-name="rho" unicode="&#x3c1;" horiz-adv-x="558" 
d="M459 430q-59 65 -155 65q-106 0 -166 -63q-33 -35 -45.5 -72t-12.5 -93v-484h91v237h4q47 -33 120 -33q90 0 157 73q69 72 69 187q0 116 -62 183zM420 248q0 -104 -37 -164.5t-95 -60.5q-41 0 -74 23.5t-43 55.5q0 16 -0.5 45t-0.5 47q0 16 2 88q1 59 10.5 91t33.5 54
q30 30 79 30q52 0 82 -36q43 -50 43 -173z" />
    <glyph glyph-name="sigma1" unicode="&#x3c2;" horiz-adv-x="446" 
d="M431 -35q0 95 -90 117q-13 3 -47.5 8.5t-55.5 11.5q-113 31 -113 162q0 103 47 152q38 42 87 42q44 0 73 -21q-10 -63 -10 -70q0 -18 16 -31.5t43 -13.5q49 0 49 60q0 51 -47.5 82t-123.5 31q-87 0 -150 -61q-76 -73 -76 -194q0 -76 42 -133.5t114 -80.5q30 -10 72 -16
t53 -9q59 -13 59 -63q0 -37 -26.5 -64t-60.5 -29q-3 1 -42 30q-25 19 -47 19q-47 0 -47 -42q0 -51 100 -51q76 0 128 48q53 48 53 116z" />
    <glyph glyph-name="sigma" unicode="&#x3c3;" horiz-adv-x="573" 
d="M371 88q-35 -66 -100 -66q-66 0 -104 67q-32 60 -32 156q0 86 29 140q34 67 107 67q70 0 104 -63q28 -53 28 -146q0 -94 -32 -155zM370 481q-56 14 -98 14q-108 0 -173 -71t-65 -185t70 -186q66 -68 161 -68q110 0 177 77q62 71 62 177q0 113 -81 180v2h139v60h-192z" />
    <glyph glyph-name="tau" unicode="&#x3c4;" horiz-adv-x="451" 
d="M441 421v60h-312q-54 0 -83 -34q-27 -27 -27 -67q0 -12 3 -57h31q5 47 19 67q24 31 68 31h44v-315q0 -59 23.5 -87.5t79.5 -28.5q13 0 25.5 1.5l21 2.5t21 5t17 6t19.5 8l20 8v36q-22 -9 -64 -9q-49 0 -62 29q-10 17 -10 86v258h166z" />
    <glyph glyph-name="upsilon" unicode="&#x3c5;" horiz-adv-x="541" 
d="M441 83q58 88 58 227q0 68 -17 119q-21 61 -75 61q-23 0 -38.5 -14t-15.5 -33q0 -40 46 -79q48 -38 48 -114q0 -92 -42 -150q-40 -58 -107 -58q-48 0 -69 19q-39 30 -38 111l2 203q0 60 -20.5 86.5t-69.5 26.5q-39 0 -100 -28v-31q36 4 48 4q48 0 48 -53l-1 -228
q0 -85 53 -127q46 -39 122 -39q104 0 168 97z" />
    <glyph glyph-name="phi" unicode="&#x3c6;" horiz-adv-x="696" 
d="M589 437q-59 58 -143 58q-58 0 -98 -27q-46 -31 -46 -91v-354q-76 2 -121 61t-45 155q0 175 112 213l-7 40q-103 -24 -155 -89.5t-52 -163.5q0 -110 72 -179q74 -70 196 -74v-203h91v203q107 2 184 72q85 73 85 198q0 115 -73 181zM560 260q0 -105 -43 -168t-124 -69v377
q0 26 16 41.5t40 15.5q49 0 80 -53t31 -144z" />
    <glyph glyph-name="chi" unicode="&#x3c7;" horiz-adv-x="506" 
d="M299 125l205 356h-110q-13 -32 -40 -81l-45 -87l-57 -108l-42 105q-9 21 -27 71q-24 59 -37 77q-19 30 -58 30q-15 0 -45 -8q-24 -6 -45 -14v-31q40 0 63.5 -11.5t43.5 -46.5q13 -20 47 -82q26 -47 72 -141l-214 -371h110q10 27 39 82q9 20 48 92l63 117l27 -68l27 -67
l20 -49q24 -56 40 -77q24 -30 61 -30t91 19v31h-27q-31 0 -51 14t-49 65q-34 55 -110 213z" />
    <glyph glyph-name="psi" unicode="&#x3c8;" horiz-adv-x="730" 
d="M688 331q0 66 -17 107q-20 52 -68 52q-25 0 -40.5 -14t-15.5 -40q0 -35 42 -69t42 -107q0 -86 -51 -156q-53 -70 -147 -77v454h-91v-454q-45 0 -91 29q-61 42 -60 123l1 196q1 62 -20.5 87.5t-69.5 25.5q-38 0 -99 -28v-31q36 4 47 4q28 0 38.5 -12.5t10.5 -40.5l-2 -196
q0 -108 89 -159q58 -32 156 -39v-203h91v203q131 16 197 117q58 86 58 228z" />
    <glyph glyph-name="omega" unicode="&#x3c9;" horiz-adv-x="715" 
d="M456 487l-8 -39q66 -10 101 -71q30 -60 30 -161q0 -77 -21 -132q-25 -59 -75 -59q-41 0 -60.5 27t-19.5 88v180h-91v-180q0 -61 -20 -88t-61 -27q-49 0 -74 59q-21 50 -21 132q0 105 30 161q35 64 101 71l-8 39q-91 -8 -153 -67q-70 -70 -70 -188q0 -107 52 -176
q53 -71 137 -71q82 0 132 82q50 -82 133 -82q85 0 137 71q52 69 52 176q0 121 -70 189q-61 59 -153 66z" />
    <glyph glyph-name="iotadieresis" unicode="&#x3ca;" horiz-adv-x="295" 
d="M292 8v32q-22 -2 -32 -2q-33 0 -51.5 17t-18.5 47v378l-6 7l-168 -10v-32q40 -2 59 -14q25 -19 25 -51l-1 -285q0 -105 92 -105q50 0 101 18zM295 666q0 25 -17 42.5t-41 17.5t-41 -17.5t-17 -42.5t17 -42.5t41 -17.5t41 17.5t17 42.5zM85 666q0 25 -17 42.5t-41 17.5
t-41 -17.5t-17 -42.5t17 -42.5t41 -17.5t41 17.5t17 42.5z" />
    <glyph glyph-name="upsilondieresis" unicode="&#x3cb;" horiz-adv-x="541" 
d="M441 83q58 88 58 227q0 68 -17 119q-21 61 -75 61q-23 0 -38.5 -14t-15.5 -33q0 -40 46 -79q48 -38 48 -114q0 -92 -42 -150q-40 -58 -107 -58q-48 0 -69 19q-39 30 -38 111l2 203q0 60 -20.5 86.5t-69.5 26.5q-39 0 -100 -28v-31q36 4 48 4q48 0 48 -53l-1 -228
q0 -85 53 -127q46 -39 122 -39q104 0 168 97zM436 666q0 25 -17 42.5t-41 17.5t-41 -17.5t-17 -42.5t17 -42.5t41 -17.5t41 17.5t17 42.5zM226 666q0 25 -17 42.5t-41 17.5t-41 -17.5t-17 -42.5t17 -42.5t41 -17.5t41 17.5t17 42.5z" />
    <glyph glyph-name="omicrontonos" unicode="&#x3cc;" horiz-adv-x="539" 
d="M504 246q0 114 -66 181q-65 68 -166 68q-106 0 -172 -72q-66 -71 -66 -184q0 -114 70 -186q66 -68 161 -68q112 0 177 77q62 73 62 184zM403 245q0 -104 -35.5 -163.5t-96.5 -59.5q-66 0 -104 67q-32 60 -32 158q0 87 29 142q34 69 107 69q68 0 103 -67q29 -54 29 -146z
M341 751v10h-138v-10q35 -96 54 -195h29q21 106 55 195z" />
    <glyph glyph-name="upsilontonos" unicode="&#x3cd;" horiz-adv-x="541" 
d="M441 83q58 88 58 227q0 68 -17 119q-21 61 -75 61q-23 0 -38.5 -14t-15.5 -33q0 -40 46 -79q48 -38 48 -114q0 -92 -42 -150q-40 -58 -107 -58q-48 0 -69 19q-39 30 -38 111l2 203q0 60 -20.5 86.5t-69.5 26.5q-39 0 -100 -28v-31q36 4 48 4q48 0 48 -53l-1 -228
q0 -85 53 -127q46 -39 122 -39q104 0 168 97zM342 751v10h-138v-10q35 -96 54 -195h29q21 106 55 195z" />
    <glyph glyph-name="omegatonos" unicode="&#x3ce;" horiz-adv-x="715" 
d="M456 487l-8 -39q66 -10 101 -71q30 -60 30 -161q0 -77 -21 -132q-25 -59 -75 -59q-41 0 -60.5 27t-19.5 88v180h-91v-180q0 -61 -20 -88t-61 -27q-49 0 -74 59q-21 50 -21 132q0 105 30 161q35 64 101 71l-8 39q-91 -8 -153 -67q-70 -70 -70 -188q0 -107 52 -176
q53 -71 137 -71q82 0 132 82q50 -82 133 -82q85 0 137 71q52 69 52 176q0 121 -70 189q-61 59 -153 66zM426 751v10h-138v-10q35 -96 54 -195h29q21 106 55 195z" />
    <glyph glyph-name="afii10023" unicode="&#x401;" horiz-adv-x="653" 
d="M630 204h-35q-9 -26 -32 -70q-25 -50 -46 -71q-15 -15 -67 -21q-16 -2 -87 -2q-77 0 -97 15q-21 15 -21 76v208h78q61 0 85 -30q24 -32 29 -88h36v271h-36q-8 -55 -29 -82q-13 -18 -31 -24.5t-54 -6.5h-78v275h109q56 0 83 -4q31 -5 62 -46q32 -40 43 -78h36v167h-536
v-35q40 -2 71 -17q28 -13 28 -49v-498q0 -34 -28 -49q-7 -3 -32 -6q-4 -1 -39 -4v-35h575zM503 845q0 25 -16.5 42.5t-40.5 17.5t-41 -17.5t-17 -42.5t17 -42.5t41 -17.5t40.5 17.5t16.5 42.5zM284 845q0 25 -17 42.5t-41 17.5t-40.5 -17.5t-16.5 -42.5t16.5 -42.5
t40.5 -17.5t41 17.5t17 42.5z" />
    <glyph glyph-name="afii10051" unicode="&#x402;" horiz-adv-x="785" 
d="M625 88q-21 -57 -71 -67q-16 39 -29 57q-23 32 -57 32q-23 0 -35.5 -16t-12.5 -37q0 -31 30.5 -50.5t88.5 -19.5q93 0 160 77q55 69 55 157q0 97 -57.5 154.5t-156.5 57.5q-77 0 -185 -58v280h29q53 0 80 -4q32 -6 66 -56q33 -50 41 -85h34v183h-598v-188h35q10 42 41 87
q38 55 65 59q37 4 81 4h22v-559q0 -38 -31 -50q-9 -4 -36 -7q-10 -1 -23 -2.5t-14 -1.5v-35h208v336q33 13 48.5 18.5t40 10.5t51.5 5q71 0 110 -44.5t39 -127.5q0 -65 -19 -110z" />
    <glyph glyph-name="afii10052" unicode="&#x403;" horiz-adv-x="583" 
d="M576 499v194h-534v-35q40 -2 71 -17q28 -13 28 -49v-500q0 -36 -28 -49q-14 -5 -71 -8v-35h311v35q-41 0 -77 14q-31 16 -31 50v555h99q59 0 87 -4q36 -5 70 -62q23 -36 38 -89h37zM421 818q45 22 45 55q0 17 -13 28t-32 11q-28 0 -56 -31l-128 -126l15 -19l68.5 33
l64 30.5t36.5 18.5z" />
    <glyph glyph-name="afii10053" unicode="&#x404;" horiz-adv-x="657" 
d="M151 308q46 30 87 30q31 0 75 -20q48 -20 81 -20q66 0 138 72l-21 26q-33 -29 -66 -29q-34 0 -79 20q-44 20 -82 20q-32 0 -68 -19l-22 -13t-22 -14.5t-22 -14.5q1 159 67 244q64 77 158 77q78 0 128 -71q44 -62 60 -150h41l-5 247h-39l-19 -33q-81 48 -172 48
q-141 0 -234 -101q-97 -105 -97 -267q0 -165 93 -261q89 -95 239 -95q112 0 193 49q73 47 73 111q0 29 -12 45q-13 21 -42 21t-45 -18t-16 -46q0 -14 2 -43.5t2 -30.5q-10 -12 -46 -28q-43 -19 -99 -19q-96 0 -159 79q-62 79 -70 204z" />
    <glyph glyph-name="afii10054" unicode="&#x405;" horiz-adv-x="561" 
d="M479 318q-38 40 -104 66q-16 7 -63 25t-73 31q-82 39 -82 123q0 43 32.5 73t79.5 30q78 0 125 -62q30 -40 59 -141h40l-4 230h-39l-20 -33q-83 48 -155 48q-88 0 -148 -54q-62 -57 -62 -134q0 -126 124 -181q33 -16 144 -57q45 -18 69 -54t24 -78q0 -57 -31 -88
q-34 -34 -100 -34q-81 0 -138 63q-45 51 -72 146h-39l7 -237h39l21 35q80 -49 173 -49q100 0 168 59q68 60 68 152q0 72 -43 121z" />
    <glyph glyph-name="afii10055" unicode="&#x406;" horiz-adv-x="390" 
d="M351 0v35q-39 0 -73 13q-31 15 -31 49v501q0 39 31 48q34 12 73 12v35h-312v-35q35 -2 73 -17q19 -8 25 -18.5t6 -29.5v-502q0 -35 -31 -48q-15 -5 -73 -8v-35h312z" />
    <glyph glyph-name="afii10056" unicode="&#x407;" horiz-adv-x="390" 
d="M351 0v35q-39 0 -73 13q-31 15 -31 49v501q0 39 31 48q34 12 73 12v35h-312v-35q35 -2 73 -17q19 -8 25 -18.5t6 -29.5v-502q0 -35 -31 -48q-15 -5 -73 -8v-35h312zM358 845q0 25 -17 42.5t-41 17.5t-41 -17.5t-17 -42.5t17 -42.5t41 -17.5t41 17.5t17 42.5zM148 845
q0 25 -17 42.5t-41 17.5t-41 -17.5t-17 -42.5t17 -42.5t41 -17.5t41 17.5t17 42.5z" />
    <glyph glyph-name="afii10057" unicode="&#x408;" horiz-adv-x="518" 
d="M491 658v35h-305v-35q49 -3 75 -17q29 -15 29 -49v-366q0 -95 -20 -146q-27 -60 -93 -60q-67 0 -90 41q7 21 30 53q20 29 20 59q0 27 -17.5 43.5t-47.5 16.5q-31 0 -49 -24.5t-18 -60.5q0 -75 49 -120t130 -45q97 0 160 71q51 57 51 133v410q0 40 28 49q33 12 68 12z" />
    <glyph glyph-name="afii10058" unicode="&#x409;" horiz-adv-x="1012" 
d="M862 212q0 -84 -39 -128.5t-113 -44.5q-54 0 -74 14.5t-20 48.5v253q26 2 83 2q74 0 118.5 -39t44.5 -106zM983 204q0 103 -81 152q-70 44 -192 44q-30 0 -94 -2v197q0 41 29 51q36 12 67 12v35h-556v-35q2 0 6.5 -1t13 -2.5l14.5 -2.5q24 -4 40 -11q21 -9 28 -32t7 -71
q0 -170 -52 -321q-38 -117 -87 -156q-17 27 -26 37q-24 24 -55 24q-24 0 -40 -19t-16 -43q0 -29 23 -49.5t63 -20.5q97 0 168 156q82 181 82 506h187v-560q0 -37 -29 -49q-13 -5 -64 -8v-35h327q95 0 161 48q76 53 76 156z" />
    <glyph glyph-name="afii10059" unicode="&#x40a;" horiz-adv-x="1065" 
d="M916 212q0 -84 -39 -128.5t-113 -44.5q-55 0 -75 14.5t-20 48.5v253q30 2 84 2q74 0 118.5 -39t44.5 -106zM1037 204q0 103 -81 152q-70 44 -192 44q-31 0 -95 -2v197q0 40 29 51q39 12 68 12v35h-293v-35q33 -2 65 -18q27 -14 27 -50v-200h-320v207q0 40 27 49
q31 12 63 12v35h-287v-35q31 -2 64 -17q29 -12 29 -49v-500q0 -37 -29 -49q-13 -5 -64 -8v-35h287v35q-32 0 -63 13q-27 15 -27 50v249h320v-253q0 -36 -27 -48q-21 -8 -67 -11v-35h328q95 0 161 48q77 53 77 156z" />
    <glyph glyph-name="afii10060" unicode="&#x40b;" horiz-adv-x="840" 
d="M825 0v35q-31 0 -65 17q-28 13 -28 49v151q0 87 -32 125q-46 56 -160 56q-41 0 -95 -20q-53 -19 -90 -42v284h29q53 0 80 -4q32 -6 66 -56q33 -50 41 -85h34v183h-598v-188h35q10 42 41 87q38 55 65 59q37 4 81 4h22v-559q0 -38 -31 -50q-9 -4 -37 -7q-10 -1 -23 -2.5
t-15 -1.5v-35h306v35q-14 0 -36 5q-28 6 -32 8q-28 16 -28 50v234q44 21 73.5 29t74.5 8q82 0 109 -47q15 -27 15 -93v-133q0 -38 -28 -50q-25 -9 -62 -11v-35h288z" />
    <glyph glyph-name="afii10061" unicode="&#x40c;" horiz-adv-x="695" 
d="M706 0v35q-31 2 -53 6q-34 5 -58 57q-51 108 -57 123q-50 105 -151 133v7q33 29 60 80q14 27 32 81q16 53 25 73q21 39 40 52q19 -36 30 -47q20 -20 49 -20q25 0 38 18q12 12 12 38t-19 44q-24 19 -63 19q-62 0 -101 -42q-18 -18 -32.5 -43.5t-20 -41l-19.5 -54.5
q-31 -97 -61 -127q-28 -31 -67 -31h-45v237q0 40 28 49q31 12 64 12v35h-287v-35q31 -2 63 -17q28 -15 28 -49v-500q0 -36 -28 -49q-14 -5 -63 -8v-35h287v35q-28 0 -64 13q-28 15 -28 50v221h35q56 0 90 -26q34 -25 67 -99q41 -89 78 -194h191zM476 818q45 22 45 55
q0 17 -13 28t-32 11q-28 0 -56 -31l-128 -126l15 -19l68.5 33l64 30.5t36.5 18.5z" />
    <glyph glyph-name="afii10062" unicode="&#x40e;" horiz-adv-x="657" 
d="M92 592q17 -30 94 -177l134 -256q-28 -49 -51.5 -75.5t-57.5 -35.5q-2 3 -8 13.5l-11.5 19.5t-10.5 15q-22 27 -52 27q-23 0 -38 -18t-15 -43q0 -29 27 -50.5t66 -21.5q60 0 105 38q53 40 114 161l85 185q50 113 94 202q24 49 49 63q29 19 65 19v35h-259v-35
q36 -2 63 -11q33 -8 33 -28q0 -7 -5 -25t-24 -68l-53 -123l-60 -135l-111.5 213.5t-65.5 125.5t-10 27q0 22 86 24v35h-292v-35q32 -2 61 -17q28 -14 48 -49zM446 806q-33 -31 -104 -31q-72 0 -103 31q17 39 17 58q0 25 -15 36.5t-37 11.5q-21 0 -34.5 -15.5t-13.5 -40.5
q0 -44 40 -74q49 -40 146 -40q95 0 147 40q40 30 40 74q0 25 -13.5 40.5t-34.5 15.5t-36.5 -12t-15.5 -36q0 -14 17 -58z" />
    <glyph glyph-name="afii10145" unicode="&#x40f;" horiz-adv-x="810" 
d="M309 0q34 -4 53 -61q13 -34 23 -107h38q15 86 23 107q22 60 54 61h262v35q-35 0 -64 13q-29 15 -29 50v499q0 40 28 49q31 12 63 12v35h-284v-35q31 -2 63 -17q26 -11 26 -49v-507q0 -23 -9 -33t-31 -10q-64 -2 -115 -2q-24 0 -57 1t-44 1q-31 0 -47.5 15.5t-16.5 38.5
v501q0 41 26 49q31 12 62 12v35h-285v-35q31 -2 64 -17q29 -12 29 -49v-500q0 -37 -29 -49q-13 -5 -64 -8v-35h261z" />
    <glyph glyph-name="afii10017" unicode="&#x410;" horiz-adv-x="671" 
d="M694 0v35q-32 0 -60 16q-30 22 -42 54l-231 598h-39l-113 -290l-115 -293q-17 -44 -51 -67q-23 -16 -63 -18v-35h261v35q-100 6 -100 43q0 16 11 55q16 51 37 107h243l58 -156q4 -7 4 -22q0 -10 -25 -17.5t-64 -9.5v-35h289zM415 283h-208l103 269z" />
    <glyph glyph-name="afii10018" unicode="&#x411;" horiz-adv-x="651" 
d="M491 212q0 -84 -39 -128.5t-113 -44.5q-54 0 -74 14.5t-20 48.5v253q26 2 83 2q74 0 118.5 -39t44.5 -106zM612 204q0 103 -81 152q-70 44 -192 44q-30 0 -94 -2v256h101q57 0 84 -4q29 -5 60 -46q34 -43 44 -81h36v170h-520v-35q32 -2 63 -16q28 -15 28 -50v-498
q0 -35 -28 -48q-21 -8 -67 -11v-35h329q94 0 161 48q76 53 76 156z" />
    <glyph glyph-name="afii10019" unicode="&#x412;" horiz-adv-x="654" 
d="M539 323q-54 37 -132 47v4q72 15 114 54q50 42 50 114q0 79 -66 118q-55 33 -135 33h-320v-35q32 -2 63 -16q28 -15 28 -50v-498q0 -35 -28 -48q-21 -8 -67 -11v-35h329q94 0 159 46q75 53 75 142q0 86 -70 135zM421 427q-35 -41 -114 -41h-62v266q42 2 79 2
q130 0 130 -122q0 -66 -33 -105zM489 206q0 -82 -38.5 -124.5t-111.5 -42.5q-94 0 -94 62v244q3 0 31.5 1t53.5 1q74 0 116.5 -39t42.5 -102z" />
    <glyph glyph-name="afii10020" unicode="&#x413;" horiz-adv-x="583" 
d="M576 499v194h-534v-35q40 -2 71 -17q28 -13 28 -49v-500q0 -36 -28 -49q-14 -5 -71 -8v-35h311v35q-41 0 -77 14q-31 16 -31 50v555h99q59 0 87 -4q36 -5 70 -62q23 -36 38 -89h37z" />
    <glyph glyph-name="afii10021" unicode="&#x414;" horiz-adv-x="722" 
d="M478 86q0 -44 -46 -44h-303q66 107 110 273q44 165 44 337h195v-566zM146 1h392q35 -4 68 -67q22 -40 38 -96h36v204h-41q-31 0 -44 10.5t-13 37.5v507q0 40 27 49q31 12 63 12v35h-558v-35q14 -2 38 -6q22 -4 39 -10q32 -15 32 -84q0 -121 -49 -274q-48 -153 -107 -242
h-67v-204h36q22 67 40 96q36 63 70 67z" />
    <glyph glyph-name="afii10022" unicode="&#x415;" horiz-adv-x="653" 
d="M630 204h-35q-9 -26 -32 -70q-25 -50 -46 -71q-15 -15 -67 -21q-16 -2 -87 -2q-77 0 -97 15q-21 15 -21 76v208h78q61 0 85 -30q24 -32 29 -88h36v271h-36q-8 -55 -29 -82q-13 -18 -31 -24.5t-54 -6.5h-78v275h109q56 0 83 -4q31 -5 62 -46q32 -40 43 -78h36v167h-536
v-35q40 -2 71 -17q28 -13 28 -49v-498q0 -34 -28 -49q-7 -3 -32 -6q-4 -1 -39 -4v-35h575z" />
    <glyph glyph-name="afii10024" unicode="&#x416;" horiz-adv-x="984" 
d="M996 0v35q-19 1 -57 7q-30 7 -54 56q-8 21 -57 123q-49 106 -148 133v7q37 33 59 80q10 19 31 82q10 39 24 73q16 36 40 51q16 -34 29 -47q20 -20 49 -20q26 0 39 18q12 12 12 38t-20 44q-21 19 -63 19q-62 0 -101 -42t-69 -139q-29 -96 -60 -127q-28 -31 -67 -31h-39
v237q0 40 28 49q31 12 65 12v35h-287v-35q26 -2 63 -17q27 -14 27 -49v-232h-39q-36 0 -67 31q-10 9 -17 19t-13 24t-9 23l-10 30t-10 31q-31 99 -70 139q-42 42 -101 42q-41 0 -63 -19q-20 -20 -20 -44q0 -22 13 -39t38 -17q29 0 49 20q13 13 29 47q26 -16 41 -52
q5 -13 24 -74q20 -62 31 -82q18 -39 58 -78v-7q-99 -28 -147 -133l-57 -123q-13 -28 -26 -40.5t-33 -16.5q-28 -4 -53 -6v-35h190q43 115 78 194q34 76 66 100q31 25 89 25h29v-227q0 -36 -27 -49q-14 -5 -63 -8v-35h287v35q-29 0 -65 13q-28 15 -28 50v221h30q54 0 88 -26
t65 -99q41 -89 78 -194h191z" />
    <glyph glyph-name="afii10025" unicode="&#x417;" horiz-adv-x="609" 
d="M498 333q-53 36 -127 38v6q90 23 131 74q36 41 36 96q0 57 -41 99q-61 62 -186 62q-102 0 -181 -48l-20 33h-39l-4 -247h40q24 103 59 151q49 70 135 70q61 0 93 -37q26 -32 26 -86q0 -77 -34 -114.5t-108 -37.5h-52v-53h70q84 0 121 -44q29 -35 29 -96q0 -87 -53 -133
q-47 -41 -126 -41q-53 0 -99 24q-36 19 -44 36q1 9 9 37q7 25 7 44q0 23 -16 38t-46 15q-27 0 -42 -20t-15 -49q0 -66 63 -115q72 -51 183 -51q133 0 215 60q84 62 84 158q0 83 -68 131z" />
    <glyph glyph-name="afii10026" unicode="&#x418;" horiz-adv-x="818" 
d="M769 0v35q-34 0 -63 13q-28 15 -28 50v499q0 40 28 49q29 12 63 12v35h-287v-35q38 -2 67 -17q29 -12 29 -48l-335 -417v421q0 40 28 49q29 12 63 12v35h-286v-35q31 -2 64 -17q29 -12 29 -49v-500q0 -37 -29 -49q-13 -5 -64 -8v-35h286v35q-36 0 -65 13q-17 9 -22.5 19
t-5.5 28v11l335 418v-432q0 -37 -29 -49q-13 -5 -65 -8v-35h287z" />
    <glyph glyph-name="afii10027" unicode="&#x419;" horiz-adv-x="818" 
d="M769 0v35q-34 0 -63 13q-28 15 -28 50v499q0 40 28 49q29 12 63 12v35h-287v-35q38 -2 67 -17q29 -12 29 -48l-335 -417v421q0 40 28 49q29 12 63 12v35h-286v-35q31 -2 64 -17q29 -12 29 -49v-500q0 -37 -29 -49q-13 -5 -64 -8v-35h286v35q-36 0 -65 13q-17 9 -22.5 19
t-5.5 28v11l335 418v-432q0 -37 -29 -49q-13 -5 -65 -8v-35h287zM519 806q-33 -31 -105 -31q-71 0 -103 31q17 39 17 58q0 25 -15 36.5t-37 11.5q-21 0 -34.5 -15.5t-13.5 -40.5q0 -44 40 -74q50 -40 146 -40q95 0 148 40q40 30 40 74q0 25 -13.5 40.5t-35.5 15.5
q-21 0 -36.5 -12t-15.5 -36q0 -25 18 -58z" />
    <glyph glyph-name="afii10028" unicode="&#x41a;" horiz-adv-x="695" 
d="M706 0v35q-31 2 -53 6q-34 5 -58 57q-51 108 -57 123q-50 105 -151 133v7q33 29 60 80q14 27 32 81q16 53 25 73q21 39 40 52q19 -36 30 -47q20 -20 49 -20q25 0 38 18q12 12 12 38t-19 44q-24 19 -63 19q-62 0 -101 -42q-18 -18 -32.5 -43.5t-20 -41l-19.5 -54.5
q-31 -97 -61 -127q-28 -31 -67 -31h-45v237q0 40 28 49q31 12 64 12v35h-287v-35q31 -2 63 -17q28 -15 28 -49v-500q0 -36 -28 -49q-14 -5 -63 -8v-35h287v35q-28 0 -64 13q-28 15 -28 50v221h35q56 0 90 -26q34 -25 67 -99q41 -89 78 -194h191z" />
    <glyph glyph-name="afii10029" unicode="&#x41b;" horiz-adv-x="756" 
d="M156 658q2 0 6.5 -1t13 -2.5l14.5 -2.5q24 -4 40 -11q21 -9 28 -32t7 -71q0 -170 -52 -321q-38 -117 -87 -156q-17 27 -26 37q-24 24 -55 24q-25 0 -40.5 -19.5t-15.5 -42.5q0 -29 23 -49.5t63 -20.5q97 0 168 156q82 181 82 506h187v-560q0 -37 -29 -49q-13 -5 -64 -8
v-35h288v35q-34 0 -63 13q-28 15 -28 50v499q0 40 28 49q29 12 63 12v35h-551v-35z" />
    <glyph glyph-name="afii10030" unicode="&#x41c;" horiz-adv-x="927" 
d="M882 0v35q-45 0 -67 13q-28 15 -28 50v499q0 40 28 49q31 12 66 12v35h-226q-3 -30 -23 -85l-170 -435l-198 520h-236v-35q54 -2 80 -27q29 -24 29 -82v-354q0 -68 -7 -95q-6 -28 -23 -42q-18 -16 -84 -23v-35h280v35q-9 0 -44 9q-35 11 -44 20q-31 28 -31 136v414h6
l226 -603h24l236 591h8v-504q0 -32 -30 -52q-10 -5 -36 -8t-42 -3v-35h306z" />
    <glyph glyph-name="afii10031" unicode="&#x41d;" horiz-adv-x="815" 
d="M765 0v35q-34 0 -63 13q-28 16 -28 50v499q0 40 28 49q31 12 63 12v35h-287v-35q32 -2 64 -17q28 -12 28 -49v-210h-325v215q0 40 27 49q31 12 63 12v35h-287v-35q31 -2 64 -17q29 -12 29 -49v-500q0 -37 -29 -49q-13 -5 -64 -8v-35h287v35q-32 0 -63 13q-27 15 -27 50
v241h325v-247q0 -38 -28 -49q-13 -5 -64 -8v-35h287z" />
    <glyph glyph-name="afii10032" unicode="&#x41e;" horiz-adv-x="744" 
d="M607 611q-92 98 -235 98q-141 0 -234 -98q-99 -105 -99 -265t94 -260q95 -103 239 -103q140 0 233 98q100 100 100 265q0 162 -98 265zM535 120q-57 -93 -163 -93t-162 91q-53 87 -53 228q0 136 49 221q54 99 166 99q103 0 160 -88q55 -86 55 -232q0 -141 -52 -226z" />
    <glyph glyph-name="afii10033" unicode="&#x41f;" horiz-adv-x="808" 
d="M758 0v35q-32 0 -63 13q-28 16 -28 50v499q0 40 28 49q31 12 63 12v35h-710v-35q31 -2 64 -17q29 -12 29 -49v-500q0 -37 -29 -49q-13 -5 -64 -8v-35h287v35q-32 0 -63 13q-27 15 -27 50v551h318v-557q0 -38 -28 -49q-13 -5 -64 -8v-35h287z" />
    <glyph glyph-name="afii10034" unicode="&#x420;" horiz-adv-x="610" 
d="M578 522q0 78 -60 124q-61 47 -157 47h-317v-35q38 -2 69 -12q28 -10 28 -52v-500q0 -37 -28 -50q-18 -6 -65 -9v-35h297v35q-45 0 -72 9q-28 11 -28 50v210h77q104 0 176 53q80 56 80 165zM430 404q-40 -57 -136 -57h-49v306h68q79 0 115 -49q29 -39 29 -106
q0 -54 -27 -94z" />
    <glyph glyph-name="afii10035" unicode="&#x421;" horiz-adv-x="642" 
d="M353 -16q99 0 167 45.5t109 145.5l-36 18q-24 -65 -73 -109q-55 -45 -131 -45q-103 0 -169 88q-65 85 -65 220q0 152 60 236t159 84q79 0 129 -71q44 -62 60 -150h41l-5 247h-39l-20 -33q-79 48 -172 48q-141 0 -234 -101q-96 -104 -96 -267q0 -159 95 -261
q92 -95 220 -95z" />
    <glyph glyph-name="afii10036" unicode="&#x422;" horiz-adv-x="619" 
d="M611 505v188h-604v-188h35q10 42 41 87q38 55 65 59q37 4 81 4h28v-559q0 -38 -31 -50q-9 -4 -39 -7q-10 -1 -23.5 -2.5t-17.5 -1.5v-35h327v35q-15 0 -44 6q-27 6 -37 9q-31 15 -31 51v554h29q53 0 80 -4q32 -6 66 -59q32 -48 41 -87h34z" />
    <glyph glyph-name="afii10037" unicode="&#x423;" horiz-adv-x="657" 
d="M92 592q17 -30 94 -177l134 -256q-28 -49 -51.5 -75.5t-57.5 -35.5q-2 3 -8 13.5l-11.5 19.5t-10.5 15q-22 27 -52 27q-23 0 -38 -18t-15 -43q0 -29 27 -50.5t66 -21.5q60 0 105 38q53 40 114 161l85 185q50 113 94 202q24 49 49 63q29 19 65 19v35h-259v-35
q36 -2 63 -11q33 -8 33 -28q0 -7 -5 -25t-24 -68l-53 -123l-60 -135l-111.5 213.5t-65.5 125.5t-10 27q0 22 86 24v35h-292v-35q32 -2 61 -17q28 -14 48 -49z" />
    <glyph glyph-name="afii10038" unicode="&#x424;" horiz-adv-x="767" 
d="M179 226q-31 54 -31 123q0 83 35 136q43 68 129 68h21v-407q-107 0 -154 80zM587 226q-47 -80 -153 -80v407h21q87 0 129 -68q34 -51 34 -136q0 -70 -31 -123zM647 171q87 71 87 190q0 99 -70 162q-77 68 -226 68h-4v18q0 36 28 47q22 8 66 10v34h-289v-34q36 -2 66 -16
q28 -11 28 -46v-13h-5q-151 0 -225 -68q-70 -60 -70 -162q0 -119 85 -190q82 -64 215 -64v-22q0 -34 -28 -46q-16 -7 -65 -10v-34h293v34q-52 2 -71 10q-28 10 -28 46v22q130 0 213 64z" />
    <glyph glyph-name="afii10039" unicode="&#x425;" horiz-adv-x="710" 
d="M711 0v35q-45 0 -65 10q-35 24 -66 69l-179 262l79 107l72 95q3 3 9.5 12t8.5 11.5l7.5 9t8 9t7.5 7t9 7l9.5 6t12.5 6.5q29 12 64 12v35h-258v-35q44 -2 62 -9t18 -23q0 -19 -40 -78l-95 -135l-89 137q-41 64 -41 82q0 13 30 19q28 5 59 7v35h-321v-35q45 -3 66 -12
q20 -9 31.5 -21.5t33.5 -44.5l166 -242l-87 -117l-80 -107q-35 -47 -72 -67q-19 -9 -65 -12v-35h259v35q-49 2 -64.5 9t-15.5 24q0 14 54 94q70 100 98 136l56.5 -87t43.5 -67q40 -64 40 -82q0 -25 -90 -27v-35h324z" />
    <glyph glyph-name="afii10040" unicode="&#x426;" horiz-adv-x="808" 
d="M624 0q35 -5 68 -67q28 -49 37 -96h37v204h-41q-31 0 -44.5 11t-13.5 37v508q0 40 28 49q31 12 63 12v35h-284v-35q31 -2 63 -17q26 -11 26 -49v-507q0 -23 -9 -33t-31 -10q-88 -2 -113 -2t-60 1t-46 1q-31 0 -45 15.5t-14 38.5v501q0 41 26 49q31 12 62 12v35h-285v-35
q31 -2 64 -17q29 -12 29 -49v-500q0 -37 -29 -49q-13 -5 -64 -8v-35h576z" />
    <glyph glyph-name="afii10041" unicode="&#x427;" horiz-adv-x="749" 
d="M504 363q-78 -35 -162 -35q-83 0 -112 49q-17 29 -17 95v125q0 40 28 49q31 12 62 12v35h-288v-35q28 -1 65 -17q28 -13 28 -49v-143q0 -89 35 -130q45 -54 163 -54q88 0 198 56v-229q0 -37 -28 -49q-15 -5 -65 -8v-35h288v35q-34 0 -63 13q-28 15 -28 50v499q0 40 28 49
q31 12 63 12v35h-288v-35q28 -1 65 -17q28 -13 28 -49v-229z" />
    <glyph glyph-name="afii10042" unicode="&#x428;" horiz-adv-x="1098" 
d="M1041 0v35q-36 0 -65 13q-28 15 -28 50v499q0 40 28 49q29 12 63 12v35h-283v-35q29 -2 62 -17q27 -12 27 -49v-511q0 -23 -8.5 -31t-32.5 -8q-62 -2 -77 -2q-18 0 -41 1t-31 1q-59 0 -59 49v506q0 41 26 49q31 12 61 12v35h-279v-35q30 -2 62 -17q27 -12 27 -49v-511
q0 -23 -8.5 -31t-32.5 -8q-46 -2 -72 -2q-20 0 -44.5 1t-32.5 1q-59 0 -59 49v506q0 41 26 49q31 12 61 12v35h-283v-35q31 -2 64 -17q29 -12 29 -49v-500q0 -37 -29 -49q-14 -5 -66 -8v-35h995z" />
    <glyph glyph-name="afii10043" unicode="&#x429;" horiz-adv-x="1098" 
d="M904 0q34 -5 69 -67q22 -44 37 -96h36v204h-41q-31 0 -44 10.5t-13 37.5v508q0 40 28 49q29 12 63 12v35h-283v-35q29 -2 62 -17q27 -12 27 -49v-511q0 -23 -8.5 -31t-32.5 -8q-62 -2 -77 -2q-18 0 -41 1t-31 1q-59 0 -59 49v506q0 41 26 49q31 12 61 12v35h-279v-35
q30 -2 62 -17q27 -12 27 -49v-511q0 -23 -8.5 -31t-32.5 -8q-46 -2 -72 -2q-20 0 -44.5 1t-32.5 1q-59 0 -59 49v506q0 41 26 49q31 12 61 12v35h-283v-35q31 -2 64 -17q29 -12 29 -49v-500q0 -37 -29 -49q-14 -5 -66 -8v-35h858z" />
    <glyph glyph-name="afii10044" unicode="&#x42a;" horiz-adv-x="762" 
d="M613 212q0 -84 -39 -128.5t-114 -44.5q-54 0 -74 14.5t-20 48.5v253q26 2 84 2q73 0 118 -39.5t45 -105.5zM734 204q0 101 -81 152q-70 44 -193 44q-30 0 -94 -2v197q0 41 29 51q39 12 71 12v35h-459v-176h37q13 46 46 88q32 42 57 45q27 4 90 4h25v-560q0 -35 -30 -48
q-5 -2 -33 -7q-8 -1 -15.5 -1.5t-15 -1.5t-10.5 -1v-35h338q95 0 161 48q77 54 77 156z" />
    <glyph glyph-name="afii10045" unicode="&#x42b;" horiz-adv-x="968" 
d="M489 212q0 -84 -38.5 -128.5t-111.5 -44.5q-54 0 -74 14.5t-20 48.5v253q26 2 83 2q73 0 117 -39.5t44 -105.5zM610 204q0 103 -81 152q-70 44 -190 44q-30 0 -94 -2v197q0 40 28 51q39 12 68 12v35h-293v-35q35 -2 65 -18q28 -15 28 -50v-496q0 -35 -28 -48
q-21 -8 -67 -11v-35h329q91 0 159 48q76 53 76 156zM723 592v-500q0 -37 -28 -49q-13 -5 -65 -8v-35h288v35q-34 0 -63 13q-28 15 -28 50v499q0 40 28 49q31 12 63 12v35h-288v-35q33 -2 65 -17q28 -13 28 -49z" />
    <glyph glyph-name="afii10046" unicode="&#x42c;" horiz-adv-x="641" 
d="M491 212q0 -84 -39 -128.5t-113 -44.5q-54 0 -74 14.5t-20 48.5v253q26 2 83 2q74 0 118.5 -39t44.5 -106zM612 204q0 103 -81 152q-70 44 -192 44q-30 0 -94 -2v197q0 40 28 51q39 12 68 12v35h-293v-35q35 -2 65 -18q28 -15 28 -50v-496q0 -35 -28 -48q-21 -8 -67 -11
v-35h329q94 0 161 48q76 53 76 156z" />
    <glyph glyph-name="afii10047" unicode="&#x42d;" horiz-adv-x="658" 
d="M619 367q0 157 -87 250q-85 91 -225 91q-110 0 -188 -48l-19 33h-39l-3 -247h40q21 101 62 152q56 69 140 69q92 0 147 -69t60 -196q-46 -31 -88 -31q-31 0 -75 19q-47 18 -81 18q-67 0 -138 -71l21 -26q1 1 7 5l7.5 5l6.5 4.5t7 4.5t6.5 3t7.5 3t7.5 2t8.5 1.5t8 0.5
q30 0 80 -19q40 -19 81 -19q31 0 68 18q15 7 66 43q-1 -155 -70 -250q-30 -41 -75.5 -64.5t-96.5 -23.5q-48 0 -96 21q-18 9 -41 27q11 41 11 80q0 25 -14.5 41t-43.5 16q-28 0 -43.5 -19t-15.5 -50q0 -59 59 -104q68 -53 200 -53q148 0 242 105q96 107 96 278z" />
    <glyph glyph-name="afii10048" unicode="&#x42e;" horiz-adv-x="1066" 
d="M932 611q-92 98 -230 98q-130 0 -218 -88q-93 -93 -104 -240h-136v216q0 40 27 49q31 12 63 12v35h-286v-35q31 -2 64 -17q29 -12 29 -49v-500q0 -37 -29 -49q-13 -5 -64 -8v-35h286v35q-32 0 -63 13q-27 15 -27 50v240h135q4 -157 92 -255q90 -100 231 -100
q136 0 228 98q97 102 97 265q0 164 -95 265zM859 120q-54 -93 -158 -93q-105 0 -158 91q-50 84 -50 228q0 137 46 221q54 99 162 99q103 0 155 -88q53 -83 53 -232q0 -140 -50 -226z" />
    <glyph glyph-name="afii10049" unicode="&#x42f;" horiz-adv-x="697" 
d="M652 0v35q-41 0 -68 9q-28 11 -28 50v501q0 40 28 51q45 12 68 12v35h-320q-91 0 -153 -46q-67 -47 -67 -134q0 -74 50 -119q45 -39 119 -54v-7q-46 -15 -75.5 -41t-50.5 -73q-2 -4 -26 -57l-30 -64q-15 -31 -27 -42t-32 -14q-25 -5 -53 -7v-35h190q36 97 38 101
q15 38 39 91q34 76 65 99q32 23 87 23h46v-220q0 -37 -28 -50q-16 -6 -65 -9v-35h293zM452 356h-65q-73 0 -115 39t-42 112q0 66 37.5 106t100.5 40h84v-297z" />
    <glyph glyph-name="afii10065" unicode="&#x430;" horiz-adv-x="504" 
d="M491 9v31q-46 0 -55 5q-27 16 -27 50q0 42 1.5 118t1.5 123q0 92 -51 129q-40 30 -127 30q-64 0 -114 -33q-58 -35 -58 -79q0 -24 12.5 -40t35.5 -16q26 0 42 13.5t16 31.5q0 12 -4.5 35t-4.5 29q23 23 69 23q54 0 78 -44q14 -29 14 -59v-48q-25 -14 -91 -36l-89 -30
q-48 -19 -70 -45q-31 -36 -31 -89q0 -54 35 -87t89 -33q90 0 156 72h3q12 -70 90 -70q30 0 79 19zM321 267l-3 -169q-43 -56 -106 -56q-34 0 -54.5 20t-20.5 58q0 58 53 93q39 26 131 54z" />
    <glyph glyph-name="afii10066" unicode="&#x431;" horiz-adv-x="541" 
d="M372 88q-35 -66 -101 -66q-70 0 -103 61q-31 57 -31 163q0 86 29 141q39 68 109 68q68 0 102 -65q28 -56 28 -144q0 -93 -33 -158zM86 357q6 54 24 117q19 57 45 85q40 45 100 49q16 0 54.5 3t48.5 3q36 1 49 10q8 4 34 31q8 9 61 75l-28 20q-32 -41 -78 -46
q-17 -2 -69 -4.5t-66 -3.5q-68 -4 -116.5 -45.5t-70.5 -112.5q-37 -118 -37 -245q0 -158 68 -235q61 -73 159 -73q110 0 179 77q63 72 63 184q0 111 -59 176q-61 70 -171 70q-63 0 -112 -37.5t-74 -98.5z" />
    <glyph glyph-name="afii10067" unicode="&#x432;" horiz-adv-x="518" 
d="M383 142q0 -47 -23 -74q-32 -35 -98 -35q-65 0 -65 40v159q3 0 23 1t41 1q59 0 90.5 -24.5t31.5 -67.5zM481 134q0 56 -43 86q-34 26 -92 33v5q109 25 109 115q0 60 -55 87q-45 22 -126 22q-50 0 -133.5 -0.5t-107.5 -0.5v-32q28 -2 47 -11q27 -11 27 -43v-313
q0 -37 -27 -44q-12 -4 -44 -6v-32h255q79 0 129 30q61 36 61 104zM358 369q0 -47 -23 -70q-25 -28 -91 -28h-47v175q30 2 55 2q48 0 73 -15q33 -20 33 -64z" />
    <glyph glyph-name="afii10068" unicode="&#x433;" horiz-adv-x="440" 
d="M279 0v32q-35 2 -54 11q-27 11 -27 44v358h52q9 0 66 -3q23 -3 53 -50q19 -30 32 -70h30v159h-401v-32q32 -2 50 -11q27 -11 27 -43v-313q0 -37 -27 -44q-12 -4 -44 -6v-32h243z" />
    <glyph glyph-name="afii10069" unicode="&#x434;" horiz-adv-x="560" 
d="M55 40h-52v-181h36q9 50 36 95q29 44 54 48h284q28 -6 52 -50q24 -41 35 -93h35v181h-31q-31 0 -41.5 10.5t-10.5 36.5v312q0 37 27 44q17 5 43 6v32h-438v-32q35 -2 64 -14q27 -13 27 -57q0 -66 -36 -170t-84 -168zM110 40q111 154 117 401h134v-371q0 -30 -40 -30h-211
z" />
    <glyph glyph-name="afii10070" unicode="&#x435;" horiz-adv-x="483" 
d="M463 113l-34 21q-30 -51 -61 -72t-75 -21q-82 0 -123 61q-38 55 -38 154h319v32q0 90 -44 145q-51 62 -152 62q-100 0 -161 -77q-59 -73 -59 -173q0 -109 56 -182q63 -76 174 -76q64 0 115.5 33.5t82.5 92.5zM355 297h-223q3 75 36.5 118t85.5 43q55 0 81 -50
q20 -37 20 -111z" />
    <glyph glyph-name="afii10072" unicode="&#x436;" horiz-adv-x="787" 
d="M780 0v32q-9 1 -44 7q-30 6 -46 40q-11 29 -34 74q-20 39 -45 61.5t-67 30.5v6q43 27 64 98q2 5 7 22l7.5 25.5t8 19t10.5 14.5q19 -23 26.5 -30.5t18 -13.5t24.5 -6q23 0 37 14t14 36q0 26 -18 41.5t-54 15.5q-52 0 -87 -40q-21 -23 -37 -81q-18 -61 -39 -84
q-24 -24 -59 -24h-29v142q0 36 26 44q11 3 43 5v32h-231v-32q31 -2 46 -10q27 -10 27 -43v-138h-29q-35 0 -59 24q-23 27 -39 84q-21 63 -36 81q-22 25 -40 32.5t-48 7.5q-72 0 -72 -57q0 -21 14 -35.5t37 -14.5q18 0 31 9.5t38 40.5q6 -5 11 -17t12.5 -35t9.5 -30
q22 -70 64 -97v-6q-42 -9 -67 -31t-44 -61l-14 -28.5t-12.5 -27.5l-7.5 -18q-10 -20 -20 -28.5t-27 -11.5q-20 -5 -44 -7v-32h161q34 101 51 135q25 48 51 67.5t70 19.5h9v-141q0 -33 -26 -44q-8 -3 -43 -5v-32h231v32q-31 2 -46 10q-27 11 -27 44v136h9q43 0 69.5 -20
t50.5 -67q17 -34 28 -67q3 -10 23 -68h162z" />
    <glyph glyph-name="afii10073" unicode="&#x437;" horiz-adv-x="474" 
d="M433 139q0 60 -46 92q-36 25 -92 27v7q64 12 99 49q24 27 24 67q0 41 -30 70q-46 44 -140 44q-74 0 -136 -31l-18 27h-32l-3 -174h32q25 65 52 95q41 46 92 46q40 0 62.5 -21t22.5 -58q0 -52 -24 -76.5t-82 -24.5h-42v-45h52q60 0 88 -30q21 -22 21 -64q0 -54 -33 -85
t-85 -31q-65 0 -94 29q11 41 11 64q0 17 -14.5 30.5t-39.5 13.5q-48 0 -48 -50t47 -86q51 -37 138 -37q97 0 157 42q61 42 61 110z" />
    <glyph glyph-name="afii10074" unicode="&#x438;" horiz-adv-x="612" 
d="M578 0v32q-27 2 -47 11q-26 11 -26 44v312q0 36 27 44q19 5 44 6v32h-234v-32q29 -2 48 -11q27 -10 27 -47l-221 -241v249q0 37 27 44q17 5 44 6v32h-234v-32q28 -2 47 -11q27 -11 27 -43v-313q0 -37 -27 -44q-12 -4 -44 -6v-32h234v32q-28 2 -48 11q-27 11 -27 44v8
l222 240v-253q0 -36 -29 -44q-12 -4 -44 -6v-32h234z" />
    <glyph glyph-name="afii10075" unicode="&#x439;" horiz-adv-x="612" 
d="M578 0v32q-27 2 -47 11q-26 11 -26 44v312q0 36 27 44q19 5 44 6v32h-234v-32q29 -2 48 -11q27 -10 27 -47l-221 -241v249q0 37 27 44q17 5 44 6v32h-234v-32q28 -2 47 -11q27 -11 27 -43v-313q0 -37 -27 -44q-12 -4 -44 -6v-32h234v32q-28 2 -48 11q-27 11 -27 44v8
l222 240v-253q0 -36 -29 -44q-12 -4 -44 -6v-32h234zM471 679q0 24 -13.5 38.5t-34.5 14.5q-20 0 -34.5 -11.5t-14.5 -33.5q0 -21 15 -57q-24 -32 -82 -32q-55 0 -81 32q15 41 15 57q0 22 -15 33.5t-35 11.5q-19 0 -33 -15t-14 -38q0 -39 35 -73q43 -40 128 -40q83 0 128 40
q36 32 36 73z" />
    <glyph glyph-name="afii10076" unicode="&#x43a;" horiz-adv-x="551" 
d="M546 0v32q-12 1 -44 7q-34 7 -48 40q-24 54 -35 74q-38 77 -114 92v6q39 25 66 96q24 72 34 81q18 -21 25.5 -29t18.5 -14t25 -6q23 0 36.5 15t13.5 37q0 25 -18.5 40.5t-53.5 15.5q-52 0 -85 -40q-14 -17 -38 -81q-18 -56 -42 -84q-24 -24 -59 -24h-31v141q0 37 27 44
q17 5 44 6v32h-235v-32q28 -2 47 -11q27 -11 27 -43v-313q0 -37 -27 -44q-12 -4 -44 -6v-32h235v32q-30 2 -47 11q-27 11 -27 44v135h11q42 0 70 -20.5t52 -66.5q24 -49 50 -135h166z" />
    <glyph glyph-name="afii10077" unicode="&#x43b;" horiz-adv-x="581" 
d="M547 0v32q-30 2 -47 11q-26 11 -26 44v312q0 37 27 44q19 5 44 6v32h-439v-32q36 -2 65 -14q26 -12 26 -57q0 -107 -33 -211q-26 -86 -57 -111q-31 44 -69 44q-21 0 -33 -15t-12 -34q0 -26 18.5 -43.5t52.5 -17.5q74 0 126 106q60 123 60 345h133v-359q0 -37 -28 -44
q-12 -4 -43 -6v-32h235z" />
    <glyph glyph-name="afii10078" unicode="&#x43c;" horiz-adv-x="715" 
d="M681 0v32q-27 2 -47 11q-26 11 -26 44v312q0 36 27 44q19 5 44 6v32h-202q0 -10 -17 -59l-106 -285l-121 344h-200v-32q28 -2 47 -11q27 -11 27 -48v-293q0 -50 -27 -59q-12 -4 -44 -6v-32h188v32q-30 2 -47 11q-28 12 -28 59v337h11l153 -431h31l163 423h12v-349
q0 -36 -30 -44q-12 -4 -44 -6v-32h236z" />
    <glyph glyph-name="afii10079" unicode="&#x43d;" horiz-adv-x="609" 
d="M575 0v32q-30 2 -47 11q-26 11 -26 44v312q0 37 27 44q19 5 44 6v32h-236v-32q29 -2 47 -11q28 -10 28 -43v-120h-215v124q0 37 27 44q19 5 44 6v32h-235v-32q28 -2 47 -11q27 -11 27 -43v-313q0 -37 -27 -44q-12 -4 -44 -6v-32h235v32q-29 2 -46 11q-28 12 -28 44v148
h215v-153q0 -36 -29 -44q-11 -4 -44 -6v-32h236z" />
    <glyph glyph-name="afii10080" unicode="&#x43e;" horiz-adv-x="539" 
d="M504 246q0 114 -66 181q-65 68 -166 68q-106 0 -172 -72q-66 -71 -66 -184q0 -114 70 -186q66 -68 161 -68q112 0 177 77q62 73 62 184zM403 245q0 -104 -35.5 -163.5t-96.5 -59.5q-66 0 -104 67q-32 60 -32 158q0 87 29 142q34 69 107 69q68 0 103 -67q29 -54 29 -146z
" />
    <glyph glyph-name="afii10081" unicode="&#x43f;" horiz-adv-x="602" 
d="M567 0v32q-29 2 -46 11q-26 10 -26 44v312q0 36 26 44q19 5 44 6v32h-532v-32q28 -2 47 -11q27 -11 27 -43v-313q0 -37 -27 -44q-12 -4 -44 -6v-32h235v32q-29 2 -46 11q-27 11 -27 44v354h206v-359q0 -36 -29 -44q-11 -4 -43 -6v-32h235z" />
    <glyph glyph-name="afii10082" unicode="&#x440;" horiz-adv-x="571" 
d="M475 424q-58 71 -146 71q-36 0 -74.5 -19.5t-63.5 -49.5l-4 1v54l-7 6l-164 -10v-32q36 -2 55 -13q26 -20 26 -51v-512q0 -36 -26 -46q-20 -5 -55 -7v-33h269v33q-27 0 -69 13q-28 10 -28 46v145h4q45 -33 117 -33q90 0 157 70q70 72 70 185q0 112 -61 182zM396 78
q-38 -55 -96 -55q-41 0 -75 27q-29 26 -37 52v285q46 53 105 53q72 0 108 -63q33 -53 33 -139q0 -99 -38 -160z" />
    <glyph glyph-name="afii10083" unicode="&#x441;" horiz-adv-x="454" 
d="M258 -13q56 0 108.5 34t85.5 91l-32 21q-28 -47 -60 -69.5t-78 -22.5q-66 0 -106 57q-40 58 -40 149q0 110 40 165q35 46 86 46q49 0 64 -25q0 -4 -6.5 -33t-6.5 -46q0 -19 16.5 -33t44.5 -14q25 0 37.5 17.5t12.5 44.5q0 57 -44 91.5t-116 34.5q-103 0 -167 -77
q-62 -74 -62 -175q0 -118 59.5 -187t163.5 -69z" />
    <glyph glyph-name="afii10084" unicode="&#x442;" horiz-adv-x="471" 
d="M460 327v154h-449v-154h30q9 29 31 68q33 46 52 47q45 3 66 3v-363q0 -37 -27 -44q-10 -3 -49 -6v-32h245v32q-31 2 -51 11q-27 11 -27 44v358q45 0 65 -3q29 -4 52 -47q24 -36 32 -68h30z" />
    <glyph glyph-name="afii10085" unicode="&#x443;" horiz-adv-x="492" 
d="M-1 -157q0 -25 22 -42.5t59 -17.5q40 0 79 35q46 43 102 167l68 163l104 246q10 24 33 39t41 18v30h-179v-31q17 -1 42 -13q23 -11 23 -24q0 -10 -17 -54q-32 -84 -98 -240q-10 27 -59 146l-57 139q-7 19 -7 24q0 8 20 13q21 6 35 6v34h-219v-32q58 -8 75 -51l78 -189
l85 -207q-18 -45 -50 -97q-33 -56 -58 -69q-23 36 -29 41q-21 21 -47 21q-20 0 -33 -15.5t-13 -39.5z" />
    <glyph glyph-name="afii10086" unicode="&#x444;" horiz-adv-x="753" 
d="M716 243q0 115 -61 182q-59 65 -149 65q-44 0 -82 -20h-2v243l-7 6l-165 -11v-32q38 -2 55 -13q26 -18 26 -50v-143h-2q-42 20 -82 20q-93 0 -149 -67q-61 -70 -61 -184q0 -117 62 -182q56 -65 148 -65q38 0 82 20h2v-143q0 -36 -26 -46q-20 -5 -60 -7v-33h269v33
q-25 0 -64 13q-28 10 -28 46v137h2q38 -20 82 -20q89 0 148 67q62 65 62 184zM617 243q0 -104 -35 -161q-30 -51 -90 -51q-19 0 -32 3.5t-19.5 7.5t-18.5 14v370q33 25 70 25q57 0 91 -49q34 -53 34 -159zM331 56q-27 -25 -70 -25q-59 0 -90 49q-35 50 -35 159q0 111 35 161
q33 51 90 51q42 0 70 -25v-370z" />
    <glyph glyph-name="afii10087" unicode="&#x445;" horiz-adv-x="505" 
d="M499 0v32q-28 2 -46 14t-33 35l-56 82l-72 103l100 131q31 37 94 54v30h-177v-31q48 -7 48 -25q0 -11 -5 -18q-5 -8 -82 -115l-83 125q-10 16 -10 21q0 11 46 11v32h-209v-32q46 0 75 -41l15.5 -23l21.5 -32t22 -31l61 -87l-72 -96t-40 -51q-35 -42 -91 -58v-30h178v31
q-56 6 -56 28q0 5 11 24l92 125l85 -127q15 -24 15 -31q0 -2 -1 -4t-2.5 -3t-3.5 -2.5t-5.5 -2t-6.5 -1.5t-7.5 -1.5t-8 -1t-9 -1t-9.5 -1.5v-32h221z" />
    <glyph glyph-name="afii10088" unicode="&#x446;" horiz-adv-x="603" 
d="M456 0q28 -6 52 -50q24 -41 35 -93h35v181h-31q-31 0 -41.5 10.5t-10.5 37.5v313q0 36 26 44q19 5 44 6v32h-235v-32q28 -2 46 -11q28 -10 28 -43v-319q0 -22 -5 -29.5t-25 -8.5q-11 0 -33 -0.5t-32 -0.5q-15 0 -37 0.5t-28 0.5q-23 1 -34.5 11.5t-11.5 35.5v314
q0 37 28 44q19 5 44 6v32h-236v-32q28 -2 47 -11q26 -11 26 -43v-313q0 -37 -27 -44q-12 -4 -44 -6v-32h420z" />
    <glyph glyph-name="afii10089" unicode="&#x447;" horiz-adv-x="572" 
d="M538 0v32q-30 2 -47 11q-26 11 -26 44v312q0 36 27 44q19 5 44 6v32h-236v-32q28 -2 47 -11q28 -10 28 -43v-151q-58 -19 -108 -19t-71.5 23t-21.5 75v76q0 37 27 44q17 5 44 6v32h-236v-32q28 -2 47 -11q27 -10 27 -43v-96q0 -66 36 -96.5t113 -30.5q27 0 52 5.5
t41 11.5t50 21v-128q0 -36 -29 -44q-12 -4 -44 -6v-32h236z" />
    <glyph glyph-name="afii10090" unicode="&#x448;" horiz-adv-x="863" 
d="M831 0v32q-29 2 -49 11q-26 11 -26 44v312q0 36 27 44q19 5 44 6v32h-230v-32q26 -2 45 -11q24 -9 24 -43v-319q0 -22 -5 -29.5t-25 -8.5q-11 0 -31 -0.5t-26 -0.5q-11 0 -30 0.5t-26 0.5q-23 1 -34.5 11t-11.5 35v315q0 38 24 44q19 5 43 6v32h-227v-32q26 -2 46 -11
q23 -9 23 -43v-319q0 -22 -5 -29.5t-25 -8.5q-13 0 -30.5 -0.5t-26.5 -0.5q-14 0 -31.5 0.5t-23.5 0.5q-23 1 -34.5 11.5t-11.5 35.5v314q0 38 25 44q19 5 42 6v32h-231v-32q28 -2 47 -11q26 -11 26 -43v-313q0 -37 -27 -44q-11 -4 -46 -6v-32h797z" />
    <glyph glyph-name="afii10091" unicode="&#x449;" horiz-adv-x="864" 
d="M717 0q31 -6 55 -53q24 -48 33 -90h35v181h-31q-32 0 -42.5 10.5t-10.5 37.5v313q0 36 27 44q19 5 44 6v32h-230v-32q26 -2 45 -11q24 -9 24 -43v-319q0 -22 -5 -29.5t-25 -8.5q-11 0 -31 -0.5t-26 -0.5q-11 0 -30 0.5t-26 0.5q-23 1 -34.5 11t-11.5 35v315q0 38 24 44
q19 5 43 6v32h-227v-32q26 -2 46 -11q23 -9 23 -43v-319q0 -22 -5 -29.5t-25 -8.5q-13 0 -30.5 -0.5t-26.5 -0.5q-14 0 -31.5 0.5t-23.5 0.5q-23 1 -34.5 11.5t-11.5 35.5v314q0 38 25 44q19 5 42 6v32h-231v-32q28 -2 47 -11q26 -11 26 -43v-313q0 -37 -27 -44
q-11 -4 -46 -6v-32h683z" />
    <glyph glyph-name="afii10092" unicode="&#x44a;" horiz-adv-x="578" 
d="M458 150q0 -46 -22 -79q-29 -38 -90 -38q-38 0 -53.5 10t-15.5 31v172q3 0 24 2t40 2q55 0 86 -28.5t31 -71.5zM556 148q0 71 -59 108q-56 31 -146 31q-19 0 -40 -1t-34 -1v114q0 37 27 44q12 4 52 6v32h-350v-153h30q10 33 31 67q30 46 52 47q57 3 68 3v-363
q0 -36 -26 -44q-10 -3 -49 -6v-32h259q71 0 126 35q59 40 59 113z" />
    <glyph glyph-name="afii10093" unicode="&#x44b;" horiz-adv-x="758" 
d="M377 150q0 -48 -22 -79q-29 -38 -89 -38q-38 0 -53.5 10t-15.5 31v172q3 0 23.5 2t39.5 2q55 0 86 -28.5t31 -71.5zM476 148q0 71 -60 108q-54 31 -145 31q-19 0 -41 -1t-33 -1v114q0 38 27 44q12 4 51 6v32h-242v-32q28 -2 47 -11q27 -11 27 -43v-313q0 -37 -27 -44
q-12 -4 -44 -6v-32h254q73 0 126 35q60 41 60 113zM724 0v32q-30 2 -47 11q-26 11 -26 44v312q0 37 27 44q19 5 44 6v32h-236v-32q28 -2 47 -11q27 -11 27 -43v-313q0 -36 -28 -44q-12 -4 -43 -6v-32h235z" />
    <glyph glyph-name="afii10094" unicode="&#x44c;" horiz-adv-x="497" 
d="M377 150q0 -48 -22 -79q-29 -38 -89 -38q-38 0 -53.5 10t-15.5 31v172q3 0 23.5 2t39.5 2q55 0 86 -28.5t31 -71.5zM476 148q0 71 -60 108q-54 31 -145 31q-19 0 -41 -1t-33 -1v114q0 38 27 44q12 4 51 6v32h-242v-32q28 -2 47 -11q27 -11 27 -43v-313q0 -37 -27 -44
q-12 -4 -44 -6v-32h254q73 0 126 35q60 41 60 113z" />
    <glyph glyph-name="afii10095" unicode="&#x44d;" horiz-adv-x="486" 
d="M451 262q0 100 -55 163q-59 70 -161 70q-84 0 -126 -23l-15 23h-33l-3 -170h32q23 59 47 88q40 45 94 45q53 0 86 -38q38 -48 39 -143h-194v-46h193q0 -90 -39 -148q-38 -60 -108 -60q-33 0 -61 13q-11 5 -26 16q11 36 11 59q0 17 -14.5 31t-39.5 14q-24 0 -36 -14
t-12 -37q0 -50 45 -83q48 -35 132 -35q113 0 182 80q62 76 62 195z" />
    <glyph glyph-name="afii10096" unicode="&#x44e;" horiz-adv-x="790" 
d="M624 88q-33 -66 -98 -66q-68 0 -101 67q-30 59 -30 158q0 87 26 142q35 69 105 69q68 0 101 -67q27 -55 27 -146q0 -95 -30 -157zM364 52q64 -67 156 -67q109 0 175 77q60 72 60 184q0 109 -61 178q-61 71 -167 71q-97 0 -157 -61q-59 -61 -70 -159h-103v124q0 37 27 44
q17 5 44 6v32h-235v-32q28 -2 47 -11q27 -11 27 -43v-313q0 -37 -27 -44q-12 -4 -44 -6v-32h235v32q-30 2 -47 11q-27 11 -27 44v148h102q1 -113 65 -183z" />
    <glyph glyph-name="afii10097" unicode="&#x44f;" horiz-adv-x="548" 
d="M350 253h-36q-66 0 -101.5 25.5t-35.5 73.5q0 46 32.5 70.5t85.5 24.5h55v-194zM203 232q-52 -20 -83 -81q-4 -8 -34 -72q-15 -33 -49 -40q-8 -1 -21.5 -3t-21.5 -4v-32h165q22 77 50 135q24 48 49.5 65t71.5 17h20v-135q0 -36 -28 -44q-12 -4 -44 -6v-32h236v32
q-30 2 -47 11q-26 11 -26 44v312q0 37 27 44q19 5 44 6v32h-252q-80 0 -131.5 -34t-51.5 -91q0 -94 126 -121v-3z" />
    <glyph glyph-name="afii10071" unicode="&#x451;" horiz-adv-x="483" 
d="M463 113l-34 21q-30 -51 -61 -72t-75 -21q-82 0 -123 61q-38 55 -38 154h319v32q0 90 -44 145q-51 62 -152 62q-100 0 -161 -77q-59 -73 -59 -173q0 -109 56 -182q63 -76 174 -76q64 0 115.5 33.5t82.5 92.5zM355 297h-223q3 75 36.5 118t85.5 43q55 0 81 -50
q20 -37 20 -111zM421 666q0 25 -17 42.5t-41 17.5t-41 -17.5t-17 -42.5t17 -42.5t41 -17.5t41 17.5t17 42.5zM211 666q0 25 -17 42.5t-41 17.5t-41 -17.5t-17 -42.5t17 -42.5t41 -17.5t41 17.5t17 42.5z" />
    <glyph glyph-name="afii10099" unicode="&#x452;" horiz-adv-x="571" 
d="M328 -176q-20 37 -37.5 53.5t-40.5 16.5q-21 0 -33.5 -15t-12.5 -38q0 -25 23 -41.5t64 -16.5q82 0 139 66q58 67 59 180q2 126 2 155q0 38 -1 89t-1 63q0 75 -35 117t-100 42q-58 0 -100 -28q-24 -14 -64 -54h-2v158h171v42h-171v136l-7 7l-178 -11v-32q53 -3 67 -12
q27 -20 27 -58v-30h-118v-42h118v-489q0 -36 -27 -44q-15 -4 -44 -6v-32h236v32q-27 2 -47 11q-27 11 -27 44v277q19 31 39 45q43 28 86 28q36 0 59.5 -28.5t24.5 -78.5q2 -98 2 -150q0 -40 -1 -96.5t-1 -70.5q0 -98 -16.5 -143.5t-52.5 -45.5z" />
    <glyph glyph-name="afii10100" unicode="&#x453;" horiz-adv-x="440" 
d="M279 0v32q-35 2 -54 11q-27 11 -27 44v358h52q9 0 66 -3q23 -3 53 -50q19 -30 32 -70h30v159h-401v-32q32 -2 50 -11q27 -11 27 -43v-313q0 -37 -27 -44q-12 -4 -44 -6v-32h243zM373 713q0 15 -11.5 26.5t-28.5 11.5q-36 0 -62 -43l-38 -59l-61 -91l19 -16l79.5 62
l68.5 54q34 25 34 55z" />
    <glyph glyph-name="afii10101" unicode="&#x454;" horiz-adv-x="486" 
d="M169 81q-38 52 -38 144v6h196v46h-196q10 96 53 142q38 39 81 39q56 0 94 -46q26 -32 40 -87h33v170h-33l-16 -23q-46 23 -122 23q-96 0 -162 -77q-64 -75 -64 -177q0 -113 55 -180q58 -74 173 -74q79 0 135 33t56 81q0 23 -12.5 36.5t-35.5 13.5q-25 0 -39.5 -13.5
t-14.5 -31.5q0 -20 9 -56q-7 -7 -30 -16.5t-52 -9.5q-72 0 -110 57z" />
    </font>
</defs>
</svg>
